<?xml version="1.0" standalone="no"?>
<!DOCTYPE svg PUBLIC "-//W3C//DTD SVG 1.1//EN" "http://www.w3.org/Graphics/SVG/1.1/DTD/svg11.dtd" >
<svg>
<metadata>
Created by FontForge 20110222 at Tue May 15 10:23:29 2012
 By Stefan Warting
2008 Iconian Fonts - www.iconian.com
</metadata>
<defs>
<font id="DraftingTable" horiz-adv-x="184" >
  <font-face 
    font-family="Drafting Table"
    font-weight="400"
    font-stretch="normal"
    units-per-em="1000"
    panose-1="0 0 0 0 0 0 0 0 0 0"
    ascent="800"
    descent="-200"
    x-height="352"
    cap-height="550"
    bbox="-43.1333 -214 1262 736.571"
    underline-thickness="50"
    underline-position="-75"
    unicode-range="U+0020-2122"
  />
<missing-glyph horiz-adv-x="661" 
 />
    <glyph glyph-name=".notdef" horiz-adv-x="661" 
 />
    <glyph glyph-name=".null" horiz-adv-x="0" 
 />
    <glyph glyph-name="nonmarkingreturn" horiz-adv-x="661" 
 />
    <glyph glyph-name="space" unicode=" " horiz-adv-x="346" 
 />
    <glyph glyph-name="space" unicode="&#xa0;" horiz-adv-x="346" 
 />
    <glyph glyph-name="FL0021h" unicode="!" 
d="M69 187l10 360l2.5 1.5t5.5 1.5q8 0 12.5 -1.5l4.5 -1.5q4 -2 10 -5.5t11 -7t8.5 -6.5t2.5 -5l-11 -336h-56zM54 70l44 8q3 0 10.5 -1.5t15 -4t13.5 -7t6 -10.5l-7 -46q1 -1 -4 -1.5t-14 -1.5t-19.5 -2t-20.5 -4z" />
    <glyph glyph-name="FL0022h" unicode="&#x22;" horiz-adv-x="340" 
d="M202 541l6 -137q10 3 19 1t14.5 -5t8 -5.5t0.5 -0.5l43 134q0 6 -6.5 11t-14.5 8t-16 4.5t-12 0.5zM67 539l4 -136q10 2 19 0t15 -5t8.5 -5t0.5 0l44 134q0 6 -6.5 11t-15 8t-17 4t-12.5 0z" />
    <glyph glyph-name="FL0023h" unicode="#" horiz-adv-x="597" 
d="M69 335l-1 71q1 4 12.5 5t31.5 1t43.5 -0.5t50.5 -0.5l4 136l2.5 1.5t6.5 1.5q7 0 11.5 -1.5l4.5 -1.5q8 -5 20.5 -12.5t11.5 -11.5l-2 -111q19 0 41 -0.5t47 -0.5l5 136l2 1.5t5 1.5q7 0 11.5 -1.5l4.5 -1.5q9 -5 21.5 -12.5t11.5 -11.5l-2 -116q11 -1 20 -1h19h33
q20 0 38.5 2t27.5 9l-12 -74q-1 0 -9 1t-10 1q-8 -2 -39.5 -3.5t-71.5 -3.5l-2 -133q11 -1 21 -1h20h36q20 0 38.5 2t27.5 9l-12 -75q-1 0 -9 1.5t-10 1.5q-9 -3 -40.5 -4t-73.5 -3l-4 -136h-56l2 135q-13 -2 -25 -2h-23h-42l-2 -133h-57l3 135q-26 -2 -49 -2h-44
q-39 0 -39 -1l-1 72q1 3 12.5 4t29.5 1q20 0 43.5 -0.5t49.5 -0.5l3 129q-27 0 -51.5 -0.5t-44.5 -0.5q-18 0 -29 -0.5zM352 337q-13 -1 -26 -1h-24h-40l-3 -127q19 0 42 -0.5t49 -0.5z" />
    <glyph glyph-name="FL0024h" unicode="$" horiz-adv-x="427" 
d="M196 14h57l2 94q56 1 91 23.5t35 57.5q0 13 -8.5 29.5t-18.5 35.5q-9 16 -37.5 29t-55.5 25l2 115l105 -8l-32 62h-34t-37 -1l1 61q1 3 -11.5 11t-22.5 13l-3.5 1.5t-11.5 1.5q-3 0 -5.5 -1.5l-2.5 -1.5l-3 -88q-23 -3 -44 -7t-37 -10.5t-25.5 -15t-9.5 -19.5
q0 -10 2.5 -20t6.5 -21q8 -16 24 -35t35 -38h-3q5 -7 18.5 -13.5t28.5 -12.5l-2 -97q-32 5 -62.5 12t-37.5 14l-20 -17.5t-13 -17.5q1 -7 1.5 -11t0.5 -5h2q5 -11 18.5 -19.5t31 -14t38 -9t40.5 -4.5zM259 259q18 -7 31 -13t17 -11q4 -9 8.5 -19.5t4.5 -21.5q0 -4 -4.5 -7.5
t-11 -6t-14 -4t-12.5 -1.5h-9q-5 0 -13 1zM205 423l-1 -73l-26.5 26.5t-19.5 26.5v4q0 6 13.5 10t33.5 6z" />
    <glyph glyph-name="FL0025h" unicode="%" horiz-adv-x="672" 
d="M168 0l278 535q1 5 5.5 12.5t8.5 10.5q7 -3 17.5 -10.5t15.5 -12.5l3 -4.5t4 -8.5q3 -2 2 -5.5t1 -5.5q-3 -30 -17.5 -69.5t-36.5 -84.5t-50 -93t-57 -95t-58 -90.5t-53 -78.5h-63zM83 315q-14 29 -16 66.5t9 70.5t36 56t66 23q32 0 62 -18t42 -45q13 -30 14.5 -70
t-10 -76t-37 -61t-65.5 -25q-66 0 -86 45zM219 485q-40 0 -61 -20.5t-27.5 -51.5t-1.5 -66t18 -64q37 0 57.5 21.5t27.5 52.5t3 66t-16 62zM412 79q-14 30 -16 67.5t8.5 71t35.5 56.5t66 23q31 0 61 -19t43 -46q13 -30 14.5 -70t-10 -76t-37 -61t-65.5 -25q-67 0 -86 45z
M546 250q-40 0 -61 -21t-27.5 -51.5t-1 -66t18.5 -64.5q37 0 57.5 21.5t27.5 52.5t2.5 66t-16.5 63z" />
    <glyph glyph-name="FL0026h" unicode="&#x26;" horiz-adv-x="508" 
d="M129 46q28 -24 63 -36t66 -12q45 0 76.5 30t45.5 72t8 86.5t-37 74.5q30 5 55 10t33 8h20l2 55q-8 -8 -25.5 -12t-37.5 -6q-29 -5 -62 -10t-62 -8q-4 -1 -12 -1q-25 1 -55 -4t-66 -17q4 29 7.5 60t10.5 58.5t19 49t33.5 32t53 7.5t77.5 -25q-11 14 -13 26t-2.5 21
t-2.5 15t-13 9l-75 21q-3 1 -9.5 0.5t-14 -1.5t-14 -1.5t-9.5 -0.5q-36 -36 -64.5 -82.5t-44 -100.5t-14.5 -113.5t25 -120.5q1 -4 6.5 -16t11.5 -26t11.5 -26.5t8.5 -15.5zM258 245q25 1 38 -6t2 -25q4 -26 7.5 -51.5t0 -46.5t-18.5 -34t-48 -13q-56 0 -80 62
q-6 14 -10.5 21.5t-8 15.5t-5 18.5t-0.5 30.5z" />
    <glyph glyph-name="FL0027h" unicode="'" horiz-adv-x="204" 
d="M67 541l4 -137q10 3 19 1t15 -5t8.5 -5.5t0.5 -0.5l44 134q0 6 -6.5 11t-15 8t-17 4.5t-12.5 0.5z" />
    <glyph glyph-name="FL0028h" unicode="(" horiz-adv-x="319" 
d="M91 125l25 -65q12 -34 50 -60q6 -2 24 -5.5t30 -3.5q8 0 8 3q-1 17 1 27.5t2 15.5t-4.5 6.5t-21.5 1.5q-12 0 -21.5 8t-17 19.5t-13.5 24.5t-10 23q-12 30 -17.5 70t-5.5 85t6.5 88t21.5 76t39 52t59 17q6 0 9 6t2 13.5t-5 14t-12 8.5q-44 6 -76.5 -13t-54 -54.5
t-32.5 -82.5t-13 -96t5 -96t22 -83z" />
    <glyph glyph-name="FL0029h" unicode=")" horiz-adv-x="319" 
d="M229 125l-25 -65q-12 -35 -49 -60q-3 -1 -9.5 -2.5t-15 -3t-16.5 -2.5t-14 -1q-7 0 -7 3q1 17 -1.5 27.5t-2.5 15.5t5 6.5t21 1.5q12 0 22 8t17.5 19.5t13 24.5t9.5 23q11 30 17.5 70t6.5 85t-7 88t-22.5 76t-39.5 52t-58 17q-5 0 -7.5 6t-2 13.5t4 14t10.5 8.5
q46 6 78.5 -13t53.5 -54.5t31 -82t11.5 -96t-5 -96.5t-19.5 -83z" />
    <glyph glyph-name="FL002Ah" unicode="*" horiz-adv-x="343" 
d="M68 522l53 48q5 2 17.5 -12t37.5 -44l30 36q13 14 23 22.5t11 17.5l43 -64q0 -2 -7 -5.5t-10 -6.5q-1 -3 -2 -4.5t-5 -4.5t-11.5 -10t-20.5 -20l20 -25q16 -15 24.5 -23t20.5 -11l-63 -40q-1 0 -5.5 6t-6.5 8q-6 5 -14 13.5t-25 25.5q-26 -27 -41 -42l-19.5 -19.5
l-4.5 -4.5l-50 52q0 3 2.5 6t9.5 9t20 17t34 30q-30 28 -45 37t-16 8z" />
    <glyph glyph-name="FL002Ch" unicode="+" horiz-adv-x="469" 
d="M212 358l71 1q5 -4 6 -33.5t0 -69.5h35q10 0 25 1.5t30.5 3.5t27.5 5t16 5l-11 -75q-1 0 -9 1.5t-12 1.5q-7 -4 -36 -5.5t-67 -2.5v-35q0 -20 2 -38.5t9 -27.5l-76 12q0 2 2 9t2 11q-4 7 -5 24.5t-2 40.5q-30 -1 -57.5 -2t-48.5 -1.5t-33.5 -1l-12.5 -0.5l-1 71q1 3 14 4
t34 1.5t47.5 0t54.5 -0.5q-3 40 -3.5 70t-1.5 30z" />
    <glyph glyph-name="FL002Bh" unicode="," horiz-adv-x="213" 
d="M67 71l-15 -135q10 2 18.5 0t14.5 -5t8.5 -5t0.5 0l73 134q0 6 -6.5 11t-15 8t-17 4t-12.5 0z" />
    <glyph glyph-name="FL002Dh" unicode="-" horiz-adv-x="384" 
d="M68 182l15.5 1t39 2.5t52 2.5t54.5 2.5t46 3t27 2.5q4 0 11.5 -1.5t9.5 -1.5l12 75q-9 -7 -28 -9.5t-39 -2.5q-30 0 -64.5 1.5t-64.5 1.5q-29 0 -50 -1t-22 -5z" />
    <glyph glyph-name="FL002Eh" unicode="." horiz-adv-x="201" 
d="M63 68l19 -68q12 3 24 4.5t21.5 2t15 1t4.5 1.5l8 51q0 6 -6.5 11t-15 8t-16.5 4t-12 0z" />
    <glyph glyph-name="FL002Fh" unicode="/" horiz-adv-x="394" 
d="M67 0l224 453q1 5 5.5 13.5t9.5 10.5q7 -2 17 -10.5t15 -13.5l3 -4t4 -7q4 -3 2.5 -6t-0.5 -6q-4 -44 -25 -96.5t-51.5 -109t-67.5 -114t-73 -110.5h-63z" />
    <glyph glyph-name="FL0030h" unicode="0" horiz-adv-x="468" 
d="M400 416q13 -36 18 -80.5t0.5 -91t-17.5 -91t-35.5 -79t-54.5 -55.5t-73 -21q-18 0 -39.5 8t-42 21.5t-37 31t-24.5 36.5q-15 38 -22 86.5t-6 99.5t11.5 99t32 86t55 61t79.5 23q25 0 49 -11.5t44.5 -30.5t36.5 -43t25 -49zM327 431l-10 22q-7 17 -19.5 32t-35.5 15
q-32 0 -55 -20.5t-38.5 -53.5t-23.5 -73.5t-10 -81.5t2 -77.5t13 -60.5q4 -10 8.5 -24.5t12.5 -28t20 -23.5t30 -10q36 0 61 20t41 52.5t23 74t6.5 84t-7 83t-18.5 70.5z" />
    <glyph glyph-name="FL0031h" unicode="1" horiz-adv-x="301" 
d="M186 47l3 465h-110l-12 35l188 5l-11 -528q1 -16 -10 -23t-26 -7z" />
    <glyph glyph-name="FL0032h" unicode="2" horiz-adv-x="406" 
d="M61 420q26 0 45.5 9.5t36.5 21.5t33.5 21.5t36.5 9.5q29 0 44.5 -10t20.5 -27t1 -39.5t-13 -47.5q-12 -33 -37 -41t-53 -10.5t-53 -10.5t-37 -41q-12 -31 -20.5 -74.5t-8 -83.5t13 -68.5t42.5 -28.5q226 -13 224 41h-177q-14 0 -23.5 14.5t-14.5 37t-5.5 49t3.5 51
t13.5 42.5t24.5 23q30 12 58 18.5t52 16t43 26.5t31 50q13 36 11.5 66t-15.5 51t-39.5 33t-60.5 12q-30 0 -56.5 -5t-49 -17.5t-41 -34t-30.5 -54.5z" />
    <glyph glyph-name="FL0033h" unicode="3" horiz-adv-x="368" 
d="M158 503q-8 0 -15 -1t-14 -5t-15 -12t-20 -22q0 7 -9 7h-7q-2 0 -2 6q1 22 3 36.5t8.5 22.5t19.5 11.5t37 3.5q22 0 46 -8t46 -22.5t39.5 -35t26.5 -44.5q10 -23 5 -43.5t-15 -40t-18.5 -37.5t-6.5 -34q-2 -2 7 -23q7 -17 15 -36t16 -39l9 -20q10 -38 4.5 -66
t-22.5 -48.5t-42.5 -34t-55.5 -21.5t-62.5 -11t-61.5 -3q-4 12 -5.5 18.5t-1.5 12.5q0 7 1 17.5t1 30.5q13 -12 24.5 -11.5t20.5 4t15 6t10 -6.5q31 0 56.5 13.5t41.5 35.5t20.5 51t-7.5 60q-9 23 -36.5 26.5t-86.5 3.5q-11 5 -21 13t-16.5 15t-8 12.5t4.5 6.5
q48 13 79 32.5t48.5 40t22 40t0.5 34.5q-12 30 -27.5 47.5t-50.5 17.5z" />
    <glyph glyph-name="FL0034h" unicode="4" horiz-adv-x="360" 
d="M81 547q7 -2 17.5 -10.5t15.5 -13.5l3 -11l6 -12q-1 -5 -2 -22t-2 -37.5t-0.5 -38t2.5 -21.5q0 -3 2.5 -8t6.5 -10.5t7.5 -11t5.5 -8.5q18 0 36 -4.5t32.5 -6.5t24.5 2.5t12 23.5l8 165q2 5 6.5 13.5t8.5 10.5q8 -2 18.5 -10.5t15.5 -13.5l2 -4t4 -7q3 -3 2 -6t1 -6
q-2 -15 -3 -46t-2 -71t-1.5 -84.5t-1.5 -84.5t-2 -72t-3 -47q1 -12 0 -28t-3.5 -31t-4.5 -25.5l-2 -10.5h-29q-15 36 -16 68t0.5 63t1 62.5t-12.5 65.5q-2 0 -9.5 1.5t-11.5 1.5q-11 -3 -34.5 -5.5t-48 -4.5t-43 -4t-18.5 -3l-3 278z" />
    <glyph glyph-name="FL0035h" unicode="5" horiz-adv-x="406" 
d="M67 107q26 0 45 -9.5t36 -21.5t33.5 -21.5t37.5 -9.5q29 0 44.5 10t20.5 27t1 39.5t-14 47.5q-8 22 -22 32t-31.5 14t-36.5 5t-36.5 5t-31.5 14t-22 32q-12 31 -20.5 75t-8 84t12.5 68.5t42 28.5q165 8 226 -36q-17 0 -41 -1t-48.5 -2t-48 -2t-39.5 -1q-14 0 -24 -14.5
t-15 -37t-5.5 -49t3.5 -50.5t13.5 -42.5t23.5 -23.5q31 -12 59 -18t52 -15.5t42.5 -26.5t30.5 -50q13 -36 12 -66t-15 -52t-39.5 -34t-59.5 -12q-30 0 -57 5t-49.5 18t-40.5 35t-30 55z" />
    <glyph glyph-name="FL0036h" unicode="6" horiz-adv-x="438" 
d="M129 46q-3 3 -8.5 15.5t-11.5 26.5t-11.5 26t-6.5 16q-24 61 -25 120.5t14.5 113.5t44 100.5t64.5 82.5q3 0 9.5 0.5t14 1t14 1t9.5 0.5h29q22 0 43.5 -10.5t42.5 -39.5q-48 17 -84.5 8.5t-62 -35t-40.5 -66t-21 -83.5q62 21 107 18.5t75 -21.5t45.5 -50.5t19 -67
t-4.5 -72.5t-25 -66.5t-43 -48t-59 -18.5q-31 0 -66 12t-63 36zM299 262q11 19 -4 25.5t-42 4.5t-60 -10t-57 -17q-1 -40 5.5 -73t17.5 -61q24 -62 80 -62q33 0 48 20.5t19 50t0.5 63t-7.5 59.5z" />
    <glyph glyph-name="FL0037h" unicode="7" horiz-adv-x="415" 
d="M76 24l-9 23l187 382q1 4 3.5 15t5 24t4 25.5t1.5 18.5h-148q0 1 -2 6.5t-3.5 14.5t-1.5 14q1 5 5 15t9 10h215l27 -72l-187 -380l-42 -83q9 -3 6.5 -9.5t-11 -14t-21 -13t-23 -6t-15.5 6t0 23.5z" />
    <glyph glyph-name="FL0038h" unicode="8" horiz-adv-x="465" 
d="M69 439q15 39 46.5 66t67.5 38q3 9 23 9q8 0 18 -1t24 -1q22 0 45 -8t44.5 -22.5t38.5 -35t27 -44.5q7 -23 1.5 -43.5t-14.5 -40t-17 -37.5t-5 -34q-2 -2 6 -23q8 -17 15 -36t15 -39l9 -20q9 -39 3 -68t-23 -49.5t-42.5 -33t-56.5 -19.5l-4 -15q-33 0 -63 3
q-13 -1 -23.5 -1.5t-21.5 -0.5l-6 11q-29 7 -55 20t-43 34t-23 50t5 68l8 20q7 20 15 39t15 36l6 23q2 16 -6.5 33.5t-17.5 37t-14 40.5t3 44zM201 61q1 1 13.5 0t31.5 -1t40 5.5t36.5 22t24 47t4.5 79.5q-4 10 -10.5 18t-18 13.5t-29 8t-43.5 2.5q0 -1 -4 1l-4 2
q-57 0 -85 -11.5t-36 -34.5q-12 -31 -12 -59q0 -27 11 -48t31.5 -33t49.5 -12zM228 508l-32 -9q-8 3 -17.5 -2.5t-18 -15t-15.5 -21.5t-10 -23q-5 -13 -2 -29.5t14.5 -34.5t33 -35.5t54.5 -31.5q33 14 55 32t34 36t15 35t-2 29q-12 35 -28 48t-32 16t-29.5 1.5t-19.5 4.5z
M168 20q-1 1 -2.5 -8l-1.5 -9zM169 14q1 -2 1 -4v-1zM305 18l-3 -1q3 0 3 1z" />
    <glyph glyph-name="FL0039h" unicode="9" horiz-adv-x="426" 
d="M315 500q2 -3 7.5 -15t11.5 -26t11 -26.5t7 -16.5q24 -61 27 -120t-10 -113t-39 -100.5t-62 -82.5q-2 0 -8.5 -0.5t-14.5 -0.5q-7 0 -13.5 -0.5t-9.5 -0.5h-29q-23 0 -44 10t-42 39q49 -17 85 -8t61.5 35.5t40.5 65.5t21 83q-62 -22 -107 -19.5t-75 21.5t-46 50.5
t-19.5 67.5t4.5 73t25 66.5t43.5 48.5t59.5 19q29 0 57.5 -13t57.5 -37zM159 285q-11 -19 3.5 -25t41.5 -4t60 10t57 17q2 40 -4.5 73t-17.5 60q-24 62 -80 62q-33 0 -48.5 -20.5t-19 -50t0 -63t7.5 -59.5z" />
    <glyph glyph-name="FL003Ah" unicode=":" horiz-adv-x="213" 
d="M67 71l27 -71q11 3 23 4.5t22 2t15.5 1t4.5 1.5l8 51q0 6 -6.5 11t-15 8t-17 4t-12.5 0zM64 340l29 -72q11 3 23 4t21.5 2t15.5 1.5t5 2.5l8 50q0 6 -6.5 11t-15 8t-17 4.5t-12.5 0.5z" />
    <glyph glyph-name="FL003Bh" unicode=";" horiz-adv-x="213" 
d="M64 340l29 -72q11 3 23 4t21.5 2t15.5 1.5t5 2.5l8 50q0 6 -6.5 11t-15 8t-17 4.5t-12.5 0.5zM67 71l-15 -135q10 2 18.5 0t14.5 -5t8.5 -5t0.5 0l73 134q0 6 -6.5 11t-15 8t-17 4t-12.5 0z" />
    <glyph glyph-name="FL003Dh" unicode="&#x3c;" horiz-adv-x="420" 
d="M352 24l-206 292l156 231l-26 25q-7 -4 -17 -12t-15 -13q-5 -6 -23.5 -25.5t-38.5 -41.5t-37 -41.5t-20 -25.5l-61 -121l33 -71l197 -221l3.5 -1t8.5 -1q2 0 7.5 1l5.5 1q7 2 17.5 10.5t15.5 13.5z" />
    <glyph glyph-name="FL003Eh" unicode="=" horiz-adv-x="449" 
d="M68 271l-1 72q1 4 32 4.5t73.5 -0.5t88 -2.5t75.5 -1.5q20 0 38.5 2t28.5 9l-13 -75q-1 0 -9 1.5t-11 1.5q-6 -3 -31 -4.5t-59 -2t-72 -1t-69 -0.5t-51 -0.5t-20 -2.5zM68 147l-1 72q1 4 32 4.5t73.5 -0.5t88 -2.5t75.5 -1.5q20 0 38.5 2t28.5 9l-13 -75q-1 0 -9 1.5
t-11 1.5q-6 -3 -31 -4.5t-59 -2t-72 -1t-69 -0.5t-51 -1t-20 -2z" />
    <glyph glyph-name="FL003Ch" unicode="&#x3e;" horiz-adv-x="420" 
d="M67 24l206 292l-158 231l26 25q8 -4 18.5 -12t15.5 -13q3 -4 12.5 -14.5t22 -24t26 -28.5t25.5 -28.5t20.5 -24t10.5 -14.5l61 -121l-32 -71l-198 -221l-2.5 -1t-7.5 -1q-4 0 -9 1l-5 1q-7 2 -17.5 10.5t-14.5 13.5z" />
    <glyph glyph-name="FL003Fh" unicode="?" horiz-adv-x="406" 
d="M61 420q12 33 30.5 54.5t41 34t49 17.5t56.5 5q35 0 60.5 -12t39.5 -33t15.5 -51t-11.5 -66q-12 -33 -31 -50t-43 -26.5t-52 -16t-58 -18.5q-19 -38 -21.5 -60t0.5 -33t7 -14t0 -3q-2 0 -8.5 -0.5t-13.5 0t-12.5 2.5t-5.5 8q0 10 -5 22t-9.5 24.5t-6.5 25t3 25.5
q12 33 37 41t53 10.5t53 10.5t37 41q9 25 13 47.5t-1 39.5t-20.5 27t-44.5 10q-20 0 -36.5 -9.5t-33.5 -21.5t-36.5 -21.5t-45.5 -9.5zM100 71l40 12q4 1 11 0t14 -4t12 -7.5t5 -10.5l-7 -46q1 -2 -3.5 -2.5t-12.5 -1.5t-17.5 -2t-18.5 -3z" />
    <glyph glyph-name="FL0040h" unicode="@" horiz-adv-x="523" 
d="M169 569q-8 -8 -19 -26t-34 -59q-26 -51 -37.5 -99.5t-11.5 -99.5q0 -54 12.5 -106.5t34 -99.5t49.5 -88.5t59 -73.5l52 -4h33q26 0 50 14t48 52q-21 -8 -40 -11.5t-37 -3.5q-49 0 -86 25t-61.5 65.5t-37 92.5t-12.5 107q0 58 14 111.5t42 95.5q12 18 22 32.5t20 25
t22 16.5t28 6q31 0 54 -12.5t37 -34.5t21 -51.5t7 -62.5q0 -13 -3.5 -22.5t-14.5 -17.5q-21 15 -40 21.5t-38 6.5t-35 -5.5t-28.5 -14.5t-20 -20t-9.5 -21q-2 -8 -2.5 -16.5t-0.5 -16.5q0 -26 8.5 -49t23 -40t34.5 -27t43 -10q32 0 67.5 23t67.5 77q14 31 20.5 67t6.5 74
q0 52 -11 97t-33.5 78t-56 51.5t-77.5 18.5q-62 0 -130 -65zM253 298l63 34h1q4 0 14 -9t20 -24t17.5 -34.5t7.5 -41.5l-2 -14q2 -1 -14 -1h-35q-20 0 -39.5 -0.5t-32.5 -3.5v94z" />
    <glyph glyph-name="A" unicode="A" horiz-adv-x="411" 
d="M290 114q-6 0 -26 5.5t-43.5 11.5t-43.5 10.5t-26 1.5q-12 -10 -16.5 -30.5t-10 -41.5t-16 -37t-34.5 -16q-10 23 -8 39t6 38q8 33 19.5 79t23.5 96t24.5 99.5t22.5 88.5t16.5 63.5t6.5 25.5l15 25q27 -4 38 -31l15 -38q1 -5 4 -12.5t6 -15.5t5 -14.5t2 -8.5
q7 -31 17 -74t20.5 -90.5t21 -94t18 -84t12 -61t3.5 -24.5l-15 -24q-21 2 -32.5 20t-17 39t-6.5 38zM217 405q-12 -32 -22.5 -54t-15.5 -42.5t-3.5 -43.5t13.5 -56q41 -9 57 4t16.5 38t-10 57t-22.5 61z" />
    <glyph glyph-name="B" unicode="B" horiz-adv-x="374" 
d="M152 550q22 0 46 -8t45.5 -22.5t39.5 -35t28 -44.5q9 -23 3.5 -43.5t-15 -40t-18.5 -37.5t-6 -34q-2 -2 7 -23q7 -17 14.5 -36t15.5 -39l9 -20q16 -57 -3 -92.5t-56.5 -56t-86.5 -28t-93 -7.5l-15 41l0.5 24.5t1.5 64t2.5 89t3.5 100t4 96.5t4 78q1 22 3.5 36.5t9 22.5
t19.5 11.5t37 3.5zM170 265q-26 0 -36.5 -24t-10.5 -57t7.5 -69.5t16.5 -60.5q31 0 56.5 13.5t41.5 35.5t20.5 51t-7.5 60q-15 35 -37 43t-51 8zM166 503q-22 0 -30 -20t-8.5 -47.5t3.5 -56t7 -45.5q7 -4 20 -5t18 -1q22 0 39 8.5t26 23.5t10 35t-7 43q-12 30 -27.5 47.5
t-50.5 17.5z" />
    <glyph glyph-name="C" unicode="C" horiz-adv-x="394" 
d="M91 125l25 -65q12 -34 50 -60q3 -1 12 -2t19 -2t19 -1.5t12 -0.5q27 0 47.5 3.5t34.5 14.5t22 31t11 52l-34 25q-6 -7 -17 -19.5t-25.5 -25t-30.5 -21.5t-31 -9q-12 0 -21.5 8t-17 19.5t-13.5 24.5t-10 23q-11 30 -15.5 70t-1.5 82t13 83t28 73t44 52t60 20h12l33 -24
q4 -2 17 -4t14 -2q-15 44 -34.5 62t-60.5 18q-45 0 -78.5 -21.5t-56.5 -57t-35.5 -80.5t-15.5 -92t3.5 -92.5t21.5 -81.5z" />
    <glyph glyph-name="D" unicode="D" horiz-adv-x="381" 
d="M130 550q-26 0 -36.5 -2t-13.5 -12t-1.5 -29.5t0.5 -54.5q-3 -36 -5 -90.5t-3.5 -110.5t-2 -105.5t-0.5 -75.5v-23l22 -59q61 0 107 23.5t76.5 63.5t46 91.5t15.5 108.5q0 75 -29 154q-27 67 -68 94t-108 27zM141 476q-1 20 11.5 23.5t29.5 3.5q26 0 41.5 -18t26.5 -45
q8 -22 13 -58t6 -77t-4 -83t-16.5 -76t-31.5 -55.5t-50 -21.5q-5 0 -18.5 1t-18.5 1q0 4 -1 14.5t-1.5 22t-1 21.5t0.5 14z" />
    <glyph glyph-name="E" unicode="E" horiz-adv-x="336" 
d="M67 0l12 547h191l1 -42q-60 9 -92.5 -2.5t-45 -37.5t-7.5 -63t21 -78q8 0 20 4t25 5.5t26 -3t24 -21.5q-1 -14 -11.5 -21t-25.5 -14t-31.5 -16.5t-28 -29t-16.5 -51.5t4 -82q1 -6 6 -14.5t9 -14t5 -6.5h114l23 -60h-223z" />
    <glyph glyph-name="F" unicode="F" horiz-adv-x="338" 
d="M71 36l-4 11l7 500h205l13 -35h-167q-1 0 -1.5 -15.5t-0.5 -36.5q0 -20 1 -42.5t5 -36.5q2 -3 3 -11.5t4 -15.5q6 -17 18 -25t26 -13.5t29 -11.5t28 -19q1 -13 -13 -22t-32.5 -14.5t-35 -8t-20.5 -2.5l-28 -238q-7 2 -17 10.5t-15 13.5z" />
    <glyph glyph-name="G" unicode="G" horiz-adv-x="412" 
d="M131 47q-3 3 -8.5 15.5t-11.5 26.5t-11 26t-6 16q-24 61 -27.5 120t9.5 113t39 100.5t62 82.5q3 0 9.5 0.5t14 1t14 1t8.5 0.5h30q23 0 44 -10.5t41 -39.5q-51 18 -88.5 7.5t-63 -40.5t-40 -73.5t-19 -90.5t1 -92.5t18.5 -79.5q23 -62 81 -62q33 0 48 20.5t19 50t0.5 63
t-7.5 59.5q-5 0 -16 2.5t-24 6.5t-25 8t-17 6l-1.5 3.5t-4.5 5.5q-6 17 1 27t21.5 15.5t33.5 7.5t36 1.5t30 -1.5t15 -1q11 -28 18 -64.5t8.5 -75t-3.5 -75t-18.5 -65.5t-37 -47t-58.5 -18q-57 0 -115 49z" />
    <glyph glyph-name="H" unicode="H" horiz-adv-x="371" 
d="M93 547q7 -2 17.5 -10.5t14.5 -13.5l5 -11l5 -12q-2 -5 -3 -22t-1.5 -37.5t0 -38t1.5 -21.5q0 -3 3 -8t7 -10.5t7.5 -11t5.5 -8.5q18 0 36 -4.5t32.5 -6.5t24.5 2.5t13 23.5l7 165q2 5 6.5 13.5t8.5 10.5q7 -2 17.5 -10.5t15.5 -13.5l2.5 -4t4.5 -7q3 -3 2 -6t0 -6
q-1 -15 -2 -46t-2 -71t-1.5 -84.5t-1.5 -84.5t-2 -72t-2 -47q1 -12 -1 -28t-4.5 -31t-4.5 -25.5l-2 -10.5h-28q-14 36 -15.5 68t0 63t1 62.5t-13.5 65.5q-1 0 -9 1.5t-10 1.5q-11 -3 -25.5 -6.5t-28.5 -7.5t-23.5 -6.5t-9.5 -3.5l-27 -238h-30q-6 17 -9 31.5t-4.5 28t-2 28
t-0.5 32.5q0 29 1 70.5t2 86t2.5 88.5t2.5 79t2 57l1 22z" />
    <glyph glyph-name="I" unicode="I" 
d="M67 0l12 547l2.5 1.5t5.5 1.5q8 0 12.5 -1.5l4.5 -1.5q4 -2 10 -5.5t11 -7t8.5 -6.5t2.5 -5l-13 -523h-56z" />
    <glyph glyph-name="J" unicode="J" horiz-adv-x="359" 
d="M71 60q-8 23 -2 46t21 37q17 -4 25.5 -14.5t12.5 -23t5 -25t3 -20.5q58 0 81 29t26.5 75t-4.5 102t-13 110t1.5 100t39.5 71q3 0 8 -3t10 -6.5t9.5 -7.5t5.5 -7q0 -1 1 -9.5t1.5 -20t1.5 -23t1 -18.5q-3 -27 0 -70.5t5 -94t0.5 -102t-13.5 -93t-38 -68t-72 -26.5
q-14 0 -30.5 2t-33 8.5t-30.5 19t-22 32.5z" />
    <glyph glyph-name="K" unicode="K" horiz-adv-x="394" 
d="M289 24l-83 214q-10 -10 -18 -29.5t-16 -44t-16 -50.5t-18 -47.5t-22 -35t-27 -13.5l-21 53v22v51q0 31 0.5 70t1 78.5t1.5 75.5t3 61q0 15 2.5 38.5t5.5 46t5.5 39.5t2.5 19h31q1 -3 3 -10t3.5 -14.5t3 -14.5t1.5 -10q0 -8 0.5 -25.5t1 -39t1 -45.5t0.5 -43v-22t-2 -14
h25l147 238q7 -4 17 -12t15 -13l8 -11q1 -4 0.5 -6.5t0.5 -6.5q-50 -55 -70.5 -108.5t-17 -112.5t27 -127t61.5 -151l-13 -24z" />
    <glyph glyph-name="L" unicode="L" horiz-adv-x="352" 
d="M89 24q7 -15 23 -20.5t33 -7t31.5 0t17.5 1.5q14 0 30 -0.5t31 1t27.5 7.5t19.5 18q4 9 1.5 22.5l-2.5 13.5h-154l-3 440l-28 72q-20 -18 -30.5 -55.5t-15 -87.5t-3.5 -106.5t4.5 -111.5t8.5 -104t9 -83z" />
    <glyph glyph-name="M" unicode="M" horiz-adv-x="443" 
d="M131 547q1 -4 5 -14t7.5 -21.5t6.5 -21.5t3 -14l62 -285l5 -13l5 -11q3 2 8 10.5t6 13.5q4 13 12 41l18 63t20.5 73.5t20.5 74t18 63.5t12 41h48l9 -24v-37q0 -33 -0.5 -90t-2 -121t-3 -125t-2.5 -103q0 -2 -0.5 -9t-1 -14.5t-1.5 -14t-2 -9.5q-23 7 -31 19t-15 28
q-2 5 -3 13.5t-3 10.5q-1 11 -2 37.5t-1 58.5q0 31 1 57.5t1 37.5q-24 -24 -32 -59t-13 -72t-13.5 -72t-32.5 -59l-32 24l-81 215q-3 -13 -1 -36.5t4.5 -51t4.5 -56t-0.5 -52t-11 -38t-26.5 -14.5q-11 25 -17.5 43.5t-9.5 35t-3.5 33.5t1.5 40v71q0 52 1.5 110.5t3 108
t3.5 82l2 32.5h53z" />
    <glyph glyph-name="N" unicode="N" horiz-adv-x="405" 
d="M131 554q-20 0 -30.5 -6.5t-15.5 -17t-6 -24.5t-1 -30q-2 -30 -3.5 -71t-3 -86t-2 -89t-1 -79t-1 -57t-0.5 -23l31 -80q19 0 26.5 23.5t8.5 60t-1 81t-3 87.5t2.5 78.5t16.5 54.5l151 -383q17 0 32 5.5t15 25.5q2 15 3 46.5t2 71.5t1.5 84.5t1.5 84.5t2 71.5t3 46.5
q-1 4 -1 8v8v16q0 23 -4 43.5t-14 48.5q-17 0 -29 -6.5t-13 -23.5l-17 -356z" />
    <glyph glyph-name="O" unicode="O" horiz-adv-x="468" 
d="M87 131q-13 36 -17.5 81t0 91.5t17.5 91t35.5 79t54.5 55.5t73 21q18 0 39.5 -8t41.5 -21.5t37 -31.5t25 -37q14 -38 21.5 -86.5t6.5 -99t-11.5 -99t-32 -86t-54.5 -60.5t-79 -23q-25 0 -49 12t-45 30.5t-37 42.5t-26 48zM161 116l9 -22q7 -17 20.5 -32t36.5 -15
q31 0 54 20.5t38.5 53.5t24 74t10.5 81.5t-2.5 77t-13.5 60.5q-4 10 -9 24.5t-13 28t-19.5 23.5t-29.5 10q-36 0 -61 -20t-41 -52.5t-23 -74t-6.5 -84t7 -83t18.5 -70.5z" />
    <glyph glyph-name="P" unicode="P" horiz-adv-x="380" 
d="M69 36q-2 2 -2 7v4l7 476q1 8 7.5 15.5t15 13.5t16.5 11t14 9h12q24 0 51 -7.5t51 -21t43 -33t28 -43.5q19 -51 20 -86t-11 -59.5t-34 -40.5t-49 -29.5l-55 -27.5t-52 -33q-12 -8 -14.5 -22.5t-1 -32.5t5.5 -38t5 -38.5t-2 -34.5t-16 -25q-7 2 -17 10.5t-15 13.5l-3 4.5
t-4 7.5zM229 509q-47 0 -72.5 -21t-33.5 -55.5t-1.5 -77.5t24.5 -87q51 0 76 22.5t32 58t-1 78t-24 82.5z" />
    <glyph glyph-name="Q" unicode="Q" horiz-adv-x="450" 
d="M95 112q-15 38 -22 85.5t-6 96.5t11 95.5t31 83t53 59t76 22.5q55 0 89.5 -35.5t54.5 -86.5q24 -63 18.5 -121t-22 -112t-34 -104t-17.5 -98q0 -17 6.5 -36t13.5 -35q-36 0 -75 15.5t-74 41t-62.5 59.5t-40.5 70zM281 500q-50 0 -81 -23.5t-46.5 -61.5t-18.5 -87t3 -99.5
t18 -98.5t27 -85h13h18q11 0 21 0.5t17.5 1.5t8.5 2q2 2 -1 10t-7 17t-7 16t0 7q17 11 28 13t18 2q8 0 13 2.5t10 17t11 45t17 86.5q4 24 -0.5 51t-14 57t-22.5 62t-25 65z" />
    <glyph glyph-name="R" unicode="R" horiz-adv-x="385" 
d="M159 550q19 0 43.5 -6t48.5 -18t44 -30.5t30 -43.5q11 -31 12.5 -52.5t-4 -39t-14.5 -33t-18 -34t-15.5 -42.5t-6.5 -58q0 -14 5 -38t12.5 -51.5t16 -55t16.5 -48.5h-56l-67 174l-8 4t-18.5 7.5t-21.5 6t-18 -0.5q-2 0 -2.5 -5t-1.5 -12.5t-1 -16.5v-14q-2 -10 1 -34.5
t2 -50t-9 -45t-32 -19.5l-30 77q0 1 0.5 23t1 57t1.5 79t2 89t2.5 86.5t3.5 70.5q0 25 3 40t11.5 22.5t24.5 9.5t42 2zM164 500q-13 0 -19.5 -14t-9 -35.5t-2 -48t3.5 -52t7.5 -47t8.5 -32.5q32 0 58 14.5t42 38.5t19 55t-10 64q-6 16 -13 27t-17.5 17.5t-27 9.5t-40.5 3z
" />
    <glyph glyph-name="S" unicode="S" horiz-adv-x="406" 
d="M67 107q26 0 45 -9.5t36 -21.5t33.5 -21.5t37.5 -9.5q29 0 44.5 10t20.5 27t1 39.5t-14 47.5q-12 33 -35 61.5t-48.5 56.5t-48 56.5t-34.5 61.5q-12 31 -9 57.5t18 46t39.5 30.5t54.5 11q43 0 79 -29.5t53 -73.5q-18 0 -34 5t-32 10.5t-32 10.5t-33 5q-21 0 -32 -4
t-14 -12.5t1 -23t12 -35.5q13 -35 36.5 -65t49.5 -59t49 -58.5t35 -62.5q13 -36 12 -66t-15 -52t-39.5 -34t-59.5 -12q-30 0 -57 5t-49.5 18t-40.5 35t-30 55z" />
    <glyph glyph-name="T" unicode="T" horiz-adv-x="437" 
d="M186 47l3 465h-110l-12 35h318q6 -15 4 -24t-9.5 -13.5t-19 -5.5t-24.5 -1h-27q-20 0 -34 -5t-14 -22l-17 -452q1 -16 -10 -23t-26 -7z" />
    <glyph glyph-name="U" unicode="U" horiz-adv-x="416" 
d="M100 81q-10 26 -18 71.5t-12 98t-3 106.5t9 97.5t24.5 71t42.5 27.5q16 -43 17 -85.5t1 -81.5q0 -42 -2 -82t-0.5 -80.5t8.5 -82.5t25 -88q38 0 58 8t30 25t12.5 43t6.5 62l15 332q1 30 37 30l19 -53l-11 -405q0 -33 -7.5 -53t-21.5 -30.5t-35 -14t-49 -3.5
q-23 0 -44.5 3t-40.5 12.5t-34.5 26.5t-26.5 45z" />
    <glyph glyph-name="V" unicode="V" horiz-adv-x="432" 
d="M98 547h-30q-1 0 2.5 -21.5t10 -56t15.5 -78.5t18.5 -89t19.5 -87t18 -72q3 -7 9.5 -28t14 -45.5t14.5 -46t10 -29.5q20 0 32 5t13 25q5 17 15.5 52.5t24 80t28.5 93.5t28.5 93.5t24 80t15.5 52.5q1 3 2 10t1.5 14.5t1 14t0.5 8.5q-1 4 -1.5 13t-2.5 11h-53l-115 -380
l-5 11q-18 48 -31 94t-24.5 91.5t-24.5 91t-31 92.5z" />
    <glyph glyph-name="W" unicode="W" horiz-adv-x="550" 
d="M71 572q-1 -3 -2 -10t-1.5 -14.5t-0.5 -14.5v-10q2 -20 6 -55t9.5 -76.5t12 -85.5t12 -82.5t10.5 -66.5t8 -37q3 -8 7.5 -25t10 -36t10 -35.5t7.5 -23.5h36l86 334l6 -13l3 -12l44 -238q1 -2 2.5 -10.5t5.5 -15.5q7 -15 13.5 -26.5t29.5 -18.5l14 24l104 476l-28 72
q-26 -27 -36 -65t-17 -78t-17 -78t-35 -66l-9 24q-12 31 -19 61.5t-12.5 60.5t-12.5 60t-19 62q-36 0 -43 -30l-65 -261q-2 -5 -6 -13t-9 -11l-9 24q-12 31 -16 62t-7 62.5t-7 63t-16 64.5l-7 16q-5 13 -14 25t-29 17z" />
    <glyph glyph-name="X" unicode="X" horiz-adv-x="444" 
d="M67 24l139 285l-91 238l26 25q8 -4 18.5 -12t15.5 -13q4 -6 16 -27t25 -44t24 -44t14 -27l88 142h47l9 -24l-110 -238l100 -261h-36q-6 0 -16.5 15t-22 37.5t-23 48.5t-19.5 48l-16 41l-132 -214l-2.5 -1t-7.5 -1q-4 0 -9 1l-5 1q-7 2 -17.5 10.5t-14.5 13.5z" />
    <glyph glyph-name="Y" unicode="Y" horiz-adv-x="422" 
d="M168 36l5 -12q4 -5 14.5 -13.5t17.5 -10.5q22 16 27 46.5t3 65t-5.5 68.5t2.5 58q13 42 32 80t39 75t39.5 74.5t33.5 79.5q-5 5 -15.5 13t-17.5 12l-5 1t-9 1q-3 0 -6.5 -1l-3.5 -1l-130 -191l-75 197h-7q-6 0 -14.5 -1.5t-11.5 -4.5q-10 -5 -13 -14.5t-1.5 -21.5t6 -26
t9.5 -28q11 -29 23.5 -52t16.5 -25q7 -23 11.5 -54.5t7 -67t4.5 -72.5t5 -70.5t7 -61t11 -43.5z" />
    <glyph glyph-name="Z" unicode="Z" horiz-adv-x="415" 
d="M76 24l270 -24l15 24q-5 5 -15.5 13t-17.5 10q-8 3 -30 7t-47 8t-46.5 6.5t-28.5 2.5l6 49l187 380l-27 72h-215q-5 0 -9 -10t-5 -15q0 -8 3.5 -21.5l3.5 -13.5h148q0 -6 -2 -18.5t-4 -25.5t-4.5 -24t-3.5 -15l-187 -382z" />
    <glyph glyph-name="FL005Bh" unicode="[" horiz-adv-x="336" 
d="M69 -45l10 592h192v-42q-13 2 -24.5 3t-19.5 1q-29 0 -45.5 3.5t-25.5 3.5t-12 -6.5t-3 -26.5q0 -11 -2.5 -37.5t-5 -57t-2.5 -58.5q0 -27 5 -40v-239q1 -6 6 -15t9 -14.5t5 -6.5h114l22 -60h-223z" />
    <glyph glyph-name="FL005Ch" unicode="\" horiz-adv-x="394" 
d="M346 0l-224 453q-1 5 -5.5 13.5t-9.5 10.5q-7 -2 -17.5 -10.5t-15.5 -13.5l-2.5 -4t-3.5 -7q-4 -3 -3 -6t-1 -6q4 -44 25.5 -96.5t52.5 -109t68 -114t73 -110.5h63z" />
    <glyph glyph-name="FL005Dh" unicode="]" horiz-adv-x="336" 
d="M291 547l-10 -592h-192v43q13 -3 24 -4t20 -1q28 0 45 -3.5t26 -3.5q8 0 11.5 7t3.5 27q0 10 2.5 36.5t4.5 57t2 58.5t-5 41v239q0 6 -5 15t-9 14.5t-5 6.5h-114l-22 59h223z" />
    <glyph glyph-name="FL005Eh" unicode="^" horiz-adv-x="354" 
d="M307 300q2 -29 -40 -29q-1 4 -3 11.5t-5 16t-5.5 15.5t-3.5 10l-37 97l-4 11l-16 17q-14 -19 -21.5 -49t-17 -59t-27 -50t-51.5 -21q-14 36 -7 87t29.5 98.5t57 81t74.5 33.5q0 -1 4 -14t5 -17z" />
    <glyph glyph-name="FL005Fh" unicode="_" horiz-adv-x="378" 
d="M20 -20q0 2 21.5 3t54 2.5t71.5 2.5t73.5 3t60.5 4t33 5q2 0 10 -1t9 -1l6 61q-5 -4 -23.5 -4.5t-41.5 -0.5q-22 0 -43.5 0.5t-29.5 0.5q-32 0 -65.5 2t-64.5 2q-29 0 -50 -2t-23 -5z" />
    <glyph glyph-name="FL0060h" unicode="`" horiz-adv-x="196" 
d="M133 529l-20 35q-2 3 -10 2.5t-16.5 -4t-15.5 -8.5t-7 -10l25 -31q-2 -1 4 -1q4 0 10 -4.5t13.5 -9.5t15.5 -9.5t16 -5.5z" />
    <glyph glyph-name="a" unicode="a" horiz-adv-x="361" 
d="M74 91q-22 58 -13.5 112t39 95t79 65.5t106.5 24.5l30 -79l-9 -285q0 -15 -4.5 -17.5t-12.5 0.5t-18.5 8.5t-22.5 5.5q-2 0 -10 -3.5t-18 -7.5t-20.5 -7.5t-16.5 -3.5q-11 0 -21 0.5t-14 0.5q-32 22 -47.5 43t-26.5 48zM135 95q1 -2 6.5 -9t12 -14.5t13 -14.5t10.5 -10
l5 -1t9 -1q2 0 6 1l4 1q19 16 29.5 49t15.5 69.5t6 69.5t1 50q-2 3 -6.5 7t-9.5 7.5t-9.5 6.5t-7.5 3q-27 0 -47.5 -24.5t-32 -58.5t-13.5 -70.5t8 -60.5z" />
    <glyph glyph-name="b" unicode="b" horiz-adv-x="353" 
d="M123 572q20 -51 22 -100.5t-6 -90.5q31 6 54.5 7t40.5 -6.5t30.5 -25.5t25.5 -49q8 -22 12 -53t3.5 -65t-7 -68t-20 -61t-35 -43.5t-52.5 -16.5q-3 0 -11 3.5t-18 8t-18 8.5t-11 4t-9 -3t-12 -6.5t-11 -7.5t-6 -7l-27 71v23q0 26 1.5 75.5t3 105.5t3.5 110.5t3 90.5
q0 9 1.5 26t4 32.5t4 27t1.5 10.5h33zM213 312q-45 0 -63.5 -27t-20.5 -66t8 -81.5t22 -73.5q23 0 39.5 13t26.5 33.5t14.5 47t5.5 53.5t-1 53t-6 45q-2 0 -11 1.5t-14 1.5z" />
    <glyph glyph-name="c" unicode="c" horiz-adv-x="353" 
d="M81 95q-16 40 -13.5 90t20 94.5t48.5 74.5t73 30q53 0 76 -60q-54 0 -86.5 -20.5t-46 -55t-9.5 -78.5t23 -92q21 0 37 3.5t31 7.5t30.5 7.5t35.5 3.5q8 -21 5.5 -40t-13 -32.5t-27 -21.5t-36.5 -8q-49 0 -87 20.5t-61 76.5z" />
    <glyph glyph-name="d" unicode="d" horiz-adv-x="380" 
d="M87 107q12 -32 26 -53.5t33 -35t42.5 -19t55.5 -5.5q4 0 11.5 1t16.5 2t16.5 2t11.5 1q2 6 4.5 27t5 44.5t4.5 44t3 27.5q2 23 4 56.5t3.5 70.5t3 73.5t2.5 66t1.5 47.5t0.5 19l-27 71h-24q-2 -6 -4.5 -27t-4.5 -44t-4 -44t-3 -27q-3 -5 -7.5 -13t-9.5 -11
q-44 -16 -84.5 -35.5t-66 -50.5t-31 -76t20.5 -112zM235 319q9 -24 14 -54t6 -60t-3 -58t-13.5 -48.5t-25 -31.5t-37.5 -7q-8 21 -16 49t-12 56.5t-2.5 56t10.5 49.5t28 35t51 13z" />
    <glyph glyph-name="e" unicode="e" horiz-adv-x="347" 
d="M83 86q11 -28 19.5 -45t20.5 -26.5t29 -13t45 -3.5q22 0 37 1.5t24.5 9t15 22t8.5 40.5l-34 24l-75 -48q-4 -2 -15 7.5t-19 16.5l-4 12q-14 35 -3.5 53.5t33 29.5t51.5 18.5t51 20.5t31 36t-7 64q-12 34 -29 56.5t-52 22.5q-36 0 -63 -17.5t-44.5 -46t-26.5 -65t-9 -73.5
q0 -26 3.5 -50t12.5 -46zM238 324q16 -43 -3.5 -65.5t-61.5 -22.5q-5 0 -14 1t-12 1q7 35 28 60.5t63 25.5z" />
    <glyph glyph-name="f" unicode="f" horiz-adv-x="282" 
d="M275 574q-68 0 -109.5 -25.5t-64 -68.5t-29.5 -97.5t-5.5 -113.5t8 -116.5t10.5 -105.5q0 -2 1 -9t3 -14.5t4 -14t4 -9.5h30l12 255l14 24q1 1 14.5 4.5t29 8.5t28.5 9.5t14 7.5l1 3.5t-2 8.5q-1 3 -4.5 8l-3.5 5l-79 17l0.5 10t1.5 22t1.5 22t0.5 11q-10 27 -2 41.5
t24.5 23t37.5 14.5t37.5 14.5t24.5 23t-2 41.5z" />
    <glyph glyph-name="g" unicode="g" horiz-adv-x="355" 
d="M89 -151q8 -23 26 -30.5t38 -7.5q43 0 70.5 24.5t43.5 61t23 78.5t9 77q0 17 1.5 57.5t3 85t3 85t1.5 57.5q-1 4 -0.5 6.5t-0.5 6.5q-10 23 -28 30.5t-37 7.5h-23q-51 0 -85.5 -28t-51 -70.5t-15.5 -94t19 -98.5q11 -27 29.5 -42.5t37.5 -27.5t36 -25t25 -34
q11 -27 -0.5 -47t-34 -33.5t-49 -20t-44.5 -6.5q1 -1 1 -5q0 -6 2 -7zM227 320q8 -21 13.5 -48t7 -54.5t-2 -54.5t-14 -47.5t-28 -33.5t-44.5 -13q-14 36 -21.5 79.5t-2 81.5t27 64t64.5 26z" />
    <glyph glyph-name="h" unicode="h" horiz-adv-x="374" 
d="M87 24q-7 17 -11.5 61t-6.5 101t-1 120t6 118t15 95.5t26 52.5q7 -4 17.5 -12t15.5 -13l5 -11l5 -13q0 -9 -1.5 -32.5t-3 -50t-2.5 -50t-1 -32.5q28 20 63.5 24t74.5 4q10 -26 18 -61t13.5 -73t7 -77t-2 -73t-12 -61t-24.5 -41q-3 0 -8 3t-10 6.5t-10 7.5t-6 7
q-12 31 -12 65q0 24 2.5 49t4.5 49.5t2.5 49t-3.5 48.5q-1 4 -5.5 13l-5.5 11l-60 -3q-3 0 -7.5 -12.5t-9 -30.5t-9 -38t-8.5 -34q-5 -19 -3.5 -45.5t2.5 -54.5t-2.5 -52.5t-18.5 -38.5q-3 0 -8 3t-10 6.5t-10 7.5t-6 7z" />
    <glyph glyph-name="i" unicode="i" 
d="M127 381l9 -23v-34q0 -23 -0.5 -56.5t-2 -69t-3 -69.5t-3.5 -58q-2 -20 -3.5 -39t-16.5 -32q-1 3 -4 9.5t-6 14t-6.5 14.5l-4.5 9q-2 5 -4 12.5l-4 15t-4.5 13t-3.5 7.5q-1 16 -1.5 36t-0.5 45q0 34 0.5 70.5t2 66.5t3.5 49t5 19h48zM77 513l23 15q3 1 9 0t13 -4t12 -7.5
t5 -10.5l-6 -45q2 -1 -2.5 -1.5t-12 -1.5t-17 -2t-18.5 -4z" />
    <glyph glyph-name="j" unicode="j" horiz-adv-x="223" 
d="M-26 -150q-2 3 -1 6.5t-1 5.5q42 21 65 69t35 106.5t17 121t11 114.5t16.5 85t33.5 33l11 -29q1 -3 2 -25.5t1 -54.5q0 -31 -1 -69.5t-2.5 -77t-3 -73t-2.5 -56.5q-7 -66 -43.5 -117t-96.5 -74q-7 2 -17.5 10.5t-15.5 13.5zM173 528l-11 -46l-45 -2q1 7 -1 16t-3.5 17
t0 13t9.5 5z" />
    <glyph glyph-name="k" unicode="k" horiz-adv-x="320" 
d="M70 24q0 1 -0.5 9.5t-1 20t-1 23.5t-0.5 18q0 33 1 79.5t3 97t4 99.5t3.5 88.5t3 63.5l1.5 24l15 25q7 -4 17.5 -12t15.5 -13l5 -11l4 -13l-4 -238q9 14 19 32t24 33.5t32.5 26.5t43.5 11q11 -29 9.5 -43.5t-9.5 -25t-19 -22.5t-19 -35q-9 -24 -2 -62.5t20.5 -77t28 -71
t18.5 -44.5q-3 1 -11.5 4t-18 6t-17.5 6.5t-10 5.5q-6 6 -16 26t-20 43t-18.5 43t-11.5 26q-17 -17 -21 -40t-6 -47t-6.5 -45.5t-21.5 -34.5q-3 0 -8 3t-10 6.5t-10 7.5t-6 7z" />
    <glyph glyph-name="l" unicode="l" horiz-adv-x="179" 
d="M116 523h-29q-4 0 -8 -31t-7 -79.5t-4 -108t0.5 -117.5t7.5 -108t17 -79h29l1 21.5t2.5 56.5t3 79t2.5 89t1.5 87t0.5 72q0 17 -0.5 31t-2 27.5t-5 28t-9.5 31.5z" />
    <glyph glyph-name="m" unicode="m" horiz-adv-x="473" 
d="M78 358q9 0 37 -2t60 -2q30 0 55.5 2t37.5 2q3 0 12 3.5t19.5 8t19.5 8t12 3.5q18 0 30 -4t19.5 -11t12.5 -18t11 -24q6 -18 11 -45.5t8 -59.5t2.5 -66t-5 -64t-14 -54t-24.5 -35q-3 5 -8 18t-7 18q-4 7 -8 20t-5 15q0 7 -1.5 38.5t-3.5 68t-3.5 68t-1.5 39.5l-4 13
l-26 3q-21 -19 -29 -44.5t-9.5 -54t0.5 -58.5t0.5 -57t-9.5 -49.5t-28 -37.5q-2 5 -7 18t-9 18q-14 33 -19.5 64.5t-6.5 62t0.5 61t3.5 61.5q-24 9 -40 0t-26 -31t-14.5 -53.5t-5.5 -66t1 -70t5 -64.5h-30q-16 40 -21 87.5t-4 95t5 93t7 82.5z" />
    <glyph glyph-name="n" unicode="n" horiz-adv-x="361" 
d="M76 24q-1 43 -5 86.5t-4.5 83t5 74t22 59.5t47.5 39.5t82 14.5q9 0 17 -6t14.5 -15t11.5 -19.5t8 -19.5l5 -14q8 -23 16 -54.5t13 -66.5t6 -69.5t-5.5 -61.5t-21 -44t-40.5 -17q-1 3 -3.5 11t-5 16.5t-4.5 16t-2 9.5v38q0 33 2.5 67t4.5 54q-1 0 -4.5 16.5t-8 36.5
t-8 36.5t-4.5 16.5q-29 -2 -46.5 -21t-26.5 -48.5t-12 -65.5t-2.5 -70t2.5 -63t3 -44q-2 0 -5 -1t-5 -1q-4 0 -9 1l-5 1q-7 2 -17 10.5t-15 13.5z" />
    <glyph glyph-name="o" unicode="o" horiz-adv-x="362" 
d="M76 99l15 -44q22 -57 96 -57q45 0 73.5 32t42 78.5t12 98.5t-15.5 91q-15 35 -48 59t-68 24q-47 0 -75 -29.5t-40 -73t-9.5 -92.5t17.5 -87zM228 321q13 -35 17.5 -80.5t-3.5 -85.5t-30.5 -67.5t-64.5 -27.5q-15 37 -21 82.5t1.5 85t31.5 66.5t69 27z" />
    <glyph glyph-name="p" unicode="p" horiz-adv-x="362" 
d="M67 -167l7 476q1 25 9 40t23 23t36.5 10t49.5 2q35 0 61.5 -24.5t40.5 -59.5q16 -42 19.5 -88.5t-6 -88.5t-32 -75t-58.5 -48q-39 -14 -56 -29.5t-22 -31.5t-2.5 -32.5t2.5 -32.5q0 -15 -8 -31.5t-32 -32.5zM225 322q-39 0 -60 -21t-30 -53t-8.5 -70t4.5 -72
q0 -4 4 -11.5t9 -18.5q3 -9 7 -17t5 -12q46 17 68.5 46.5t28 66.5t-3 78.5t-24.5 83.5z" />
    <glyph glyph-name="q" unicode="q" horiz-adv-x="358" 
d="M236 -6q1 -14 1 -37q0 -24 1 -50.5t5 -53.5t13 -49h29q1 0 2.5 23t4 60t5.5 83.5t5.5 94t4.5 91.5t4 76q1 22 0.5 39t-3.5 34t-9.5 35t-15.5 42q-63 0 -110 -25t-74 -68t-30.5 -100.5t21.5 -121.5q9 -25 27 -41t39 -24t42.5 -10t37.5 2zM239 319q8 -21 13 -50t5.5 -60.5
t-4 -62.5t-15 -55.5t-28 -39.5t-42.5 -15q-10 25 -17.5 56t-11 62.5t-0.5 61t14 52.5t32 37t54 14z" />
    <glyph glyph-name="r" unicode="r" horiz-adv-x="331" 
d="M89 36q-9 25 -15 60.5t-6 73.5q0 39 6 77.5t19.5 68.5t35 49t53.5 19h24q23 0 44.5 -7.5t32.5 -33.5q2 -7 -7.5 -12.5t-24.5 -10t-33.5 -9.5t-34.5 -10.5t-27.5 -12.5t-12.5 -17l-3 -247q0 -5 -5 -13.5t-10 -10.5q-7 2 -17 10.5t-15 13.5z" />
    <glyph glyph-name="s" unicode="s" horiz-adv-x="259" 
d="M37 62q12 -31 43.5 -47.5t62.5 -16.5q49 0 71 22t22 58q0 27 -13 62q-11 27 -23 46t-24 36q-13 19 -24 36t-19 34v6q0 11 13 14.5t30 3.5h44l-27 64q-27 0 -51.5 -2.5t-43 -10t-29 -20.5t-10.5 -33q0 -15 8 -41q7 -17 20 -36.5t28 -37.5h-2q14 -22 27 -40t18 -34
q2 -8 6 -18.5t4 -21.5q0 -18 -18 -18q-8 0 -20 5t-25.5 12.5t-25 16t-17.5 14.5q-7 -7 -17 -18.5t-12 -18.5q3 -14 3 -16h1z" />
    <glyph glyph-name="t" unicode="t" horiz-adv-x="317" 
d="M135 24l33 -24q10 10 19.5 43t16 79.5t9.5 101t1 105.5q21 7 39 16.5t17 24.5q-15 15 -30 20l-30 10q-3 32 -7 57.5t-11 45.5q-7 14 -14 25.5t-30 18.5q1 -10 -1 -30.5t-5 -43t-6 -42t-4 -26.5q0 -3 -9.5 -6.5t-21.5 -7t-22.5 -7t-11.5 -6.5v-4q0 1 2 -7q1 -4 4 -8.5
l3 -4.5q2 -3 10.5 -6t18.5 -6t19 -5t11 -3v-310z" />
    <glyph glyph-name="u" unicode="u" horiz-adv-x="346" 
d="M87 56q7 -17 19 -28.5t26.5 -18t30 -9t29.5 -2.5q27 0 43.5 3t31.5 23q3 17 8.5 46t10.5 63.5t9 72.5t4 73q0 47 -14 83q-26 0 -40 -13t-19 -35t-4.5 -49.5t2.5 -56.5t3 -56.5t-3.5 -49.5t-17 -35t-37.5 -13q-16 40 -20 76t-5 71.5t-4 70.5t-17 73q-2 5 -8.5 18t-8.5 18
q-13 -10 -21 -32.5t-12.5 -52t-5.5 -63t1 -66.5t7 -62t12 -49z" />
    <glyph glyph-name="v" unicode="v" horiz-adv-x="354" 
d="M72 324q-1 29 41 29q1 -3 3 -11t5 -16.5t5.5 -15.5t3.5 -10l26 -157l4 -12l16 -16q9 12 16 34.5t13.5 49t14 54t19 50t27.5 37t39 14.5q9 -24 8 -60t-10.5 -76t-26.5 -80t-38.5 -72.5t-46.5 -52.5t-52 -20l-1.5 4.5t-3 10t-3 10t-1.5 6.5z" />
    <glyph glyph-name="w" unicode="w" horiz-adv-x="529" 
d="M93 334h-24q-3 0 -2 -11t3 -26t5.5 -31.5t6.5 -27.5q4 -9 10.5 -28.5t15 -43.5t17 -51t17 -51t15 -43t10.5 -28q18 0 33.5 13t27 33.5t20.5 44.5t15.5 46t10 39t5.5 22l75 -198q1 0 7.5 0.5t15 2t11.5 4.5l15 24l80 285q1 5 -2.5 12.5t-6.5 12.5q-5 5 -15.5 12.5
t-18.5 11.5q-2 -4 -7.5 -11.5t-6.5 -12.5q-2 -9 -9.5 -33t-16.5 -50.5t-17.5 -50.5t-11.5 -33q-4 9 -16 33t-26 50.5t-27 50.5t-19 33q-5 5 -15.5 12.5t-17.5 11.5q-21 -22 -28.5 -50.5t-13 -58t-13 -57.5t-28.5 -49z" />
    <glyph glyph-name="x" unicode="x" horiz-adv-x="362" 
d="M41 36l106 156l-78 167h9h20q24 0 31 -4q4 -2 12 -13.5t17 -25l17 -25.5t12 -15l4.5 -1t9.5 -1q3 0 7 1l4 1q4 3 17.5 12.5t28.5 20t27.5 20.5t15.5 15l45 -25q-48 -37 -75 -67t-27 -60q0 -20 9 -40.5t22 -43t27 -47t25 -51.5q-1 0 -6.5 -2t-12 -4t-12 -3.5t-6.5 -0.5
q-16 6 -29.5 19.5t-24 29.5t-18.5 31.5t-12 26.5h-23l-113 -125z" />
    <glyph glyph-name="y" unicode="y" horiz-adv-x="376" 
d="M59 352h32l83 -238q17 22 32 49t28.5 55.5t25 56.5t22.5 53h47q0 -3 -0.5 -9.5t-1 -14t-1.5 -14t-2 -9.5q-4 -16 -14.5 -44t-23.5 -61.5t-28.5 -70t-28.5 -68t-23.5 -56t-14.5 -34.5q-19 -37 -34 -65t-34.5 -46.5t-48 -28t-74.5 -9.5q-8 20 0.5 36.5t25.5 32t39 31
t40 33.5t28.5 39t5.5 48z" />
    <glyph glyph-name="z" unicode="z" horiz-adv-x="362" 
d="M69 36q-2 2 -2 7v4l147 298h-94l-15 36h211l-158 -321h101l20 -52l-171 -8q-2 0 -13.5 9.5t-18.5 14.5l-3 4.5t-4 7.5z" />
    <glyph glyph-name="FL007Bh" unicode="{" horiz-adv-x="319" 
d="M91 416l25 67q6 17 18 32t32 28q6 2 24 5.5t30 3.5q8 0 8 -5q-1 -16 1 -26.5t2 -15.5t-4.5 -6.5t-21.5 -1.5q-12 0 -21.5 -8t-17 -19t-13.5 -24t-10 -23q-12 -31 -17.5 -71.5t-5.5 -85.5q0 -44 6.5 -86.5t21.5 -75.5t39 -52.5t59 -16.5q6 0 8.5 -6t2 -13.5t-4.5 -14.5
t-12 -9q-45 -7 -77 12t-53 54.5t-32 82.5t-13 96.5t5 96.5t21 82z" />
    <glyph glyph-name="FL007Ch" unicode="|" 
d="M63 -153l-2 802l2 1t6 1q7 0 11.5 -1l4.5 -1q4 -3 10 -6.5t11.5 -7t8.5 -7t2 -4.5l4 -777h-58z" />
    <glyph glyph-name="FL007Dh" unicode="}" horiz-adv-x="319" 
d="M229 416l-25 67q-12 35 -49 60q-3 1 -9.5 2.5t-15 3t-16.5 2.5t-14 1q-7 0 -7 -5q1 -16 -1.5 -26.5t-2.5 -15.5t5 -6.5t21 -1.5q12 0 22 -8t17.5 -19t13 -24t9.5 -23q11 -31 17.5 -71.5t6.5 -85.5q0 -44 -7 -86.5t-22.5 -75.5t-39.5 -52.5t-58 -16.5q-5 0 -7.5 -6
t-2 -13.5t4 -14.5t10.5 -9q45 -7 77.5 12t53.5 54.5t31.5 82.5t12 96.5t-5 96.5t-19.5 82z" />
    <glyph glyph-name="FL007Eh" unicode="~" horiz-adv-x="376" 
d="M254 176q-6 -1 -14.5 3t-22.5 15v2h-3v3l-66 38l-62 -60l-8 7t-10 12q0 7 -0.5 13t0.5 6q17 15 25.5 24.5t15 17t14 15.5t21.5 20q3 1 13 -6t25 -19l64 -36l66 60l7.5 -7t8.5 -14q0 -5 0.5 -11t-0.5 -6q-17 -15 -26 -24.5t-15.5 -17t-13 -15.5t-19.5 -20z" />
    <glyph glyph-name="FL007Fh" horiz-adv-x="179" 
 />
    <glyph glyph-name="FL20ACh" unicode="&#x20ac;" horiz-adv-x="476" 
d="M68 297l-1 71q2 4 28 5t65 0q8 36 22.5 68t36 56.5t50.5 38.5t65 14q20 0 34.5 -4.5t25.5 -14t19.5 -24.5t16.5 -37q-1 0 -14 2t-18 4l-33 24h-12q-48 0 -80 -37t-48 -93q31 -1 59.5 -1.5t51.5 -0.5q20 0 38.5 2t28.5 10l-13 -75q-1 0 -9 1t-11 1q-6 -2 -21.5 -3.5
t-37 -2t-48 -1.5t-53.5 -1q-2 -13 -3 -25.5t-1 -26.5q36 -1 70 -2t60 -1q20 0 38.5 2t28.5 9l-13 -76q-1 0 -9 2t-11 2q-6 -2 -21 -3.5t-37 -2t-48 -1.5t-54 -1q3 -15 6.5 -29.5t8.5 -25.5q4 -10 10 -23t13.5 -24.5t17.5 -19.5t22 -8q15 0 29.5 6.5t27.5 15.5t23 19l16 16
l40 -7q-3 -32 -10.5 -52t-21.5 -31t-34.5 -14.5t-48.5 -3.5q-3 0 -12 0.5t-19 1.5t-19 2t-12 2q-38 25 -48 60l-25 65q-5 11 -9 24t-6 26q-39 0 -65 -0.5t-26 -1.5l-1 71q2 3 25 3.5t58 0.5q-3 25 0 51q-36 0 -59 -0.5t-23 -1.5z" />
    <glyph glyph-name="FL201Ah" unicode="&#x201a;" horiz-adv-x="213" 
d="M67 71l-15 -135q10 2 18.5 0t14.5 -5t8.5 -5t0.5 0l73 134q0 6 -6.5 11t-15 8t-17 4t-12.5 0z" />
    <glyph glyph-name="FL0192h" unicode="&#x192;" horiz-adv-x="338" 
d="M319 553q-67 11 -112 -8t-74 -57.5t-44.5 -92t-23.5 -111.5t-11 -116t-7 -106q0 -2 -7 -13.5t-17.5 -27.5t-22 -34.5t-21.5 -35t-16.5 -28t-5.5 -13.5l133 84l43 265l19 22q2 1 15.5 2.5t29.5 3.5t29.5 4.5t15.5 5.5l1.5 3t-1.5 8q0 3 -2.5 8l-2.5 5l-76 31q1 2 4 16
t7 30t4 17q-6 28 4 41.5t28 19t39.5 8t39.5 8.5t28 19.5t4 41.5z" />
    <glyph glyph-name="FL201Eh" unicode="&#x201e;" horiz-adv-x="394" 
d="M247 71l-15 -135q11 2 20 0t15 -5t8 -5t0 0l72 134q0 6 -6.5 11t-14.5 8t-16 4t-12 0zM81 74l-14 -136q10 3 18.5 1t14.5 -5t8 -5t0 0l74 133q0 6 -6.5 11t-15 8.5t-17 4.5t-12.5 0z" />
    <glyph glyph-name="FL2026h" unicode="&#x2026;" horiz-adv-x="520" 
d="M373 71l27 -71q12 3 24 4.5t21.5 2t15.5 1t5 1.5l8 51q0 6 -6.5 11t-15 8t-17 4t-12.5 0zM67 71l27 -71q11 3 23 4.5t22 2t15.5 1t4.5 1.5l8 51q0 6 -6.5 11t-15 8t-17 4t-12.5 0zM219 71l27 -71q11 3 23 4.5t22 2t15.5 1t4.5 1.5l8 51q0 6 -6.5 11t-15 8t-17 4t-12.5 0z
" />
    <glyph glyph-name="FL2020h" unicode="&#x2020;" horiz-adv-x="449" 
d="M68 335l-1 71q1 4 12.5 5t29.5 1q20 0 44.5 -0.5t51.5 -0.5l4 136l2.5 1.5t5.5 1.5q8 0 11.5 -1.5l3.5 -1.5q10 -5 22.5 -12.5t11.5 -11.5l-3 -116q11 -1 21 -1h18h34q20 0 38.5 2t28.5 9l-13 -74q-1 0 -9 1t-11 1q-8 -2 -38.5 -3.5t-70.5 -3.5l-8 -338h-57l8 337
q-27 0 -52 -0.5t-44 -0.5t-29.5 -0.5z" />
    <glyph glyph-name="FL2021h" unicode="&#x2021;" horiz-adv-x="450" 
d="M69 335l-1 71q1 4 12.5 5t31.5 1t43.5 -0.5t50.5 -0.5l4 136l2.5 1.5t6.5 1.5q7 0 11.5 -1.5l4.5 -1.5q8 -5 20.5 -12.5t11.5 -11.5l-2 -116q11 -1 20 -1h20h32q20 0 38.5 2t28.5 9l-13 -74q-1 0 -8.5 1t-11.5 1q-8 -2 -38.5 -3.5t-70.5 -3.5l-3 -133q11 -1 22 -1h19h36
q20 0 38.5 2t28.5 9l-13 -75q-1 0 -9 1.5t-11 1.5q-8 -3 -39 -4t-75 -3l-2 -136h-57l3 135q-26 -2 -49 -2h-44q-39 0 -39 -1l-1 72q1 3 12.5 4t29.5 1q20 0 43.5 -0.5t49.5 -0.5l3 129q-27 0 -51.5 -0.5t-44.5 -0.5q-18 0 -29 -0.5z" />
    <glyph glyph-name="FL02C6h" unicode="&#x2c6;" horiz-adv-x="309" 
d="M238 482l-87 45l-66 -53l-8 6t-9 11q0 6 -0.5 10.5t0.5 4.5q17 14 26.5 22t16 15t14 14t21.5 18q9 2 46 -26l71 -50z" />
    <glyph glyph-name="FL2030h" unicode="&#x2030;" horiz-adv-x="932" 
d="M168 0l278 535q1 5 5.5 12.5t8.5 10.5q7 -3 17.5 -10.5t15.5 -12.5l3 -4.5t4 -8.5q3 -2 2 -5.5t1 -5.5q-3 -30 -17.5 -69.5t-36.5 -84.5t-50 -93t-57 -95t-58 -90.5t-53 -78.5h-63zM83 315q-14 29 -16 66.5t9 70.5t36 56t66 23q32 0 62 -18t42 -45q13 -30 14.5 -70
t-10 -76t-37 -61t-65.5 -25q-66 0 -86 45zM219 485q-40 0 -61 -20.5t-27.5 -51.5t-1.5 -66t18 -64q37 0 57.5 21.5t27.5 52.5t3 66t-16 62zM412 79q-14 30 -16 67.5t8.5 71t35.5 56.5t66 23q31 0 61 -19t43 -46q13 -30 14.5 -70t-10 -76t-37 -61t-65.5 -25q-67 0 -86 45z
M546 250q-40 0 -61 -21t-27.5 -51.5t-1 -66t18.5 -64.5q37 0 57.5 21.5t27.5 52.5t2.5 66t-16.5 63zM670 79q-13 30 -15 67.5t9 71t36 56.5t66 23q31 0 61 -19t42 -46q13 -30 15 -70t-10 -76t-37.5 -61t-65.5 -25q-67 0 -86 45zM805 250q-40 0 -61 -21t-27.5 -51.5t-1 -66
t18.5 -64.5q38 0 58.5 21.5t27 52.5t2 66t-16.5 63z" />
    <glyph glyph-name="FL0160h" unicode="&#x160;" horiz-adv-x="406" 
d="M67 107q26 0 45 -9.5t36 -21.5t33.5 -21.5t37.5 -9.5q29 0 44.5 10t20.5 27t1 39.5t-14 47.5q-12 33 -35 61.5t-48.5 56.5t-48 56.5t-34.5 61.5q-12 31 -9 57.5t18 46t39.5 30.5t54.5 11q43 0 79 -29.5t53 -73.5q-18 0 -34 5t-32 10.5t-32 10.5t-33 5q-21 0 -32 -4
t-14 -12.5t1 -23t12 -35.5q13 -35 36.5 -65t49.5 -59t49 -58.5t35 -62.5q13 -36 12 -66t-15 -52t-39.5 -34t-59.5 -12q-30 0 -57 5t-49.5 18t-40.5 35t-30 55zM123 703l86 -47l67 51l8 -6.5t9 -11.5q-1 -6 -0.5 -11t-0.5 -5q-17 -13 -26.5 -21t-16.5 -14.5t-14.5 -13
t-21.5 -17.5q-4 -3 -16 5t-29 22l-71 53z" />
    <glyph glyph-name="FL2039h" unicode="&#x2039;" horiz-adv-x="283" 
d="M236 72l-24 -42l-96 100q-52 49 -52 66q18 22 29 34t20.5 23.5t20 27t28.5 44.5q2 2 9 2.5t15 0.5q10 0 17 -0.5t9 -0.5l-65 -131z" />
    <glyph glyph-name="FL0152h" unicode="&#x152;" horiz-adv-x="597" 
d="M91 131q-15 36 -21 81t-3 92.5t15 92.5t35 80t56.5 56.5t78.5 21.5q35 0 53.5 -13t32.5 -43l2 48h190l1 -42q-60 9 -93 -2.5t-45 -37.5t-7 -63t21 -78q8 0 20 4t25.5 5.5t26.5 -3t24 -21.5q0 -14 -10.5 -21t-25.5 -14t-32 -16.5t-29 -29t-16.5 -51.5t4.5 -82
q1 -6 6 -14.5t9 -14t5 -6.5h114l22 -60h-223v38q-14 -23 -37.5 -30.5t-61.5 -7.5q-3 0 -12 0.5t-19 1t-19 1.5t-12 3q-37 24 -50 58zM205 51q16 0 31.5 9t29.5 21t25.5 24.5t17.5 18.5l20 -15l8 367q-7 1 -12.5 1.5t-8.5 4.5l-33 23h-12q-34 0 -60 -20t-44 -52t-28.5 -73
t-13 -83.5t2 -82.5t15.5 -70q4 -10 9.5 -22.5t13.5 -24t17.5 -19t21.5 -7.5z" />
    <glyph glyph-name="FL017Dh" unicode="&#x17d;" horiz-adv-x="415" 
d="M76 24l-9 23l187 382q1 4 3.5 15t5 24t4 25.5t1.5 18.5h-148q0 1 -2 6.5t-3.5 14.5t-1.5 14q1 5 5 15t9 10h215l27 -72l-187 -380l-6 -49q7 0 28.5 -3t46.5 -6.5t47 -7.5t30 -7q7 -2 17.5 -10t15.5 -13l-15 -24zM138 703l85 -47l68 51l8 -6.5t9 -11.5q-1 -6 -0.5 -11
t-0.5 -5q-17 -13 -26.5 -21t-16.5 -14.5t-14.5 -13t-21.5 -17.5q-5 -3 -16.5 5t-28.5 22l-71 53z" />
    <glyph glyph-name="FL2018h" unicode="&#x2018;" horiz-adv-x="204" 
d="M156 404l-5 137q-10 -2 -19 -0.5t-15.5 4t-9 4.5t0.5 1l-44 -134q0 -6 6.5 -11t15 -8t17 -4.5t12.5 0.5z" />
    <glyph glyph-name="FL2019h" unicode="&#x2019;" horiz-adv-x="204" 
d="M67 541l4 -137q10 3 19 1t15 -5t8.5 -5.5t0.5 -0.5l44 134q0 6 -6.5 11t-15 8t-17 4.5t-12.5 0.5z" />
    <glyph glyph-name="FL201Ch" unicode="&#x201c;" horiz-adv-x="340" 
d="M158 404l-6 137q-10 -2 -19 -0.5t-15 4t-9 4.5t0 1l-42 -134q0 -6 6 -11t14.5 -8t16.5 -4.5t12 0.5zM293 405l-4 138q-10 -3 -19 -1.5t-15.5 4t-9 5t0.5 1.5l-44 -135q0 -5 6.5 -10t15 -8.5t17 -5t12.5 0.5z" />
    <glyph glyph-name="FL201Dh" unicode="&#x201d;" horiz-adv-x="340" 
d="M202 541l6 -137q10 3 19 1t14.5 -5t8 -5.5t0.5 -0.5l43 134q0 6 -6.5 11t-14.5 8t-16 4.5t-12 0.5zM67 539l4 -136q10 2 19 0t15 -5t8.5 -5t0.5 0l44 134q0 6 -6.5 11t-15 8t-17 4t-12.5 0z" />
    <glyph glyph-name="FL2022h" unicode="&#x2022;" horiz-adv-x="282" 
d="M208 321q-61 0 -93 -22.5t-42.5 -56t-2.5 -71.5t28 -69q57 0 88 23t42 56.5t4.5 71.5t-24.5 68z" />
    <glyph glyph-name="FL2013h" unicode="&#x2013;" horiz-adv-x="384" 
d="M68 182l15.5 1t39 2.5t52 2.5t54.5 2.5t46 3t27 2.5q4 0 11.5 -1.5t9.5 -1.5l12 75q-9 -7 -28 -9.5t-39 -2.5q-30 0 -64.5 1.5t-64.5 1.5q-29 0 -50 -1t-22 -5z" />
    <glyph glyph-name="FL2014h" unicode="&#x2014;" horiz-adv-x="522" 
d="M68 176l26 1.5t65.5 3.5t86 4t88.5 4t72.5 4t37.5 3q4 0 11.5 -1.5t9.5 -1.5l11 75q-8 -7 -26.5 -9.5t-38.5 -2.5h-53h-73h-76q-29 0 -54 -0.5t-44.5 -1.5t-31 -3t-12.5 -4z" />
    <glyph glyph-name="FL02DCh" unicode="&#x2dc;" horiz-adv-x="300" 
d="M200 482q-9 -3 -26 15v2h-1v1l-49 31l-45 -48l-5 5.5t-6 10.5q0 5 -0.5 9.5t0.5 4.5q12 12 18.5 19.5t11.5 14l10 13t14 16.5q2 2 9 -3.5t17 -15.5l46 -30l46 48l6 -5.5t7 -10.5q0 -5 0.5 -9.5t-0.5 -4.5q-12 -12 -18.5 -20t-11 -14t-9.5 -12.5t-14 -16.5z" />
    <glyph glyph-name="FL2122h" unicode="&#x2122;" horiz-adv-x="514" 
d="M132 291l1 255h-61l-5 20h173q8 -17 -1 -21t-25 -4h-14q-11 0 -19 -3t-8 -11l-11 -249q2 -8 -4 -12t-15 -4zM321 553q1 -3 3.5 -8.5t4.5 -12t4 -12t2 -7.5l34 -158l1 -5l4 -7q2 2 4.5 6t3.5 6q3 11 11 39t16.5 59.5t16.5 59.5t11 40h26l5 -14v-20q0 -18 -0.5 -50t-1 -67
t-1 -68.5t-0.5 -55.5q-2 -3 -2.5 -13.5t-2.5 -12.5q-12 3 -15.5 10t-7.5 16q-2 3 -2.5 7t-2.5 6q-1 6 -1 20v32v53q-13 -14 -17 -33.5t-7 -40t-7.5 -39.5t-17.5 -31l-19 13l-43 119q-2 -11 0.5 -34t4 -46t-2.5 -40.5t-20 -17.5q-5 14 -8.5 24t-5 19t-2 18.5t1.5 21.5v40
q0 28 0.5 60.5t1.5 60t1.5 45.5l0.5 18h29z" />
    <glyph glyph-name="FL0161h" unicode="&#x161;" horiz-adv-x="259" 
d="M37 62q12 -31 43.5 -47.5t62.5 -16.5q49 0 71 22t22 58q0 27 -13 62q-11 27 -23 46t-24 36q-13 19 -24 36t-19 34v6q0 11 13 14.5t30 3.5h44l-27 64q-27 0 -51.5 -2.5t-43 -10t-29 -20.5t-10.5 -33q0 -15 8 -41q7 -17 20 -36.5t28 -37.5h-2q14 -22 27 -40t18 -34
q2 -8 6 -18.5t4 -21.5q0 -18 -18 -18q-8 0 -20 5t-25.5 12.5t-25 16t-17.5 14.5q-7 -7 -17 -18.5t-12 -18.5q3 -14 3 -16h1zM68 567l-27 -15l68 -55q34 -31 46 -29q14 11 21.5 18t14.5 13t17 13.5t29 19.5q1 0 0.5 5.5t-0.5 11.5q-1 5 -8.5 11l-7.5 6l-69 -48z" />
    <glyph glyph-name="FL203Ah" unicode="&#x203a;" horiz-adv-x="283" 
d="M67 72l23 -42l95 100q52 48 52 66q-17 22 -28 34.5t-20.5 23.5t-20.5 26.5t-29 44.5q-1 2 -9 2.5t-16 0.5t-15.5 -0.5t-8.5 -0.5l65 -131z" />
    <glyph glyph-name="FL0153h" unicode="&#x153;" horiz-adv-x="539" 
d="M81 86q-16 40 -13.5 90t20 94t48.5 74t73 30q53 0 76 -59q-54 0 -86.5 -20.5t-46 -55t-9.5 -78.5t23 -92q35 0 57.5 7.5t50.5 12.5q-8 21 -12 45t-4 50q0 37 9.5 73t27.5 64t45 45.5t63 17.5t51.5 -22t28.5 -57q16 -41 6.5 -64t-31 -36t-50 -20.5t-51 -18.5t-33.5 -29.5
t3 -53.5l4 -12q8 -7 19 -16.5t13 -7.5l77 48l34 -24q-3 -26 -8.5 -40.5t-15 -22t-24.5 -9t-37 -1.5q-39 0 -57.5 6t-31.5 26q-8 -20 -27.5 -31t-43.5 -11q-49 0 -87 21t-61 77zM430 324q-43 0 -64 -25.5t-28 -60.5q4 0 12.5 -1t12.5 -1q41 0 62 22.5t5 65.5z" />
    <glyph glyph-name="FL017Eh" unicode="&#x17e;" horiz-adv-x="362" 
d="M69 36q-2 2 -2 7v4l147 298h-94l-15 36h211l-158 -321h101l20 -52l-171 -8q-2 0 -13.5 9.5t-18.5 14.5l-3 4.5t-4 7.5zM113 566l84 -50l69 49l7.5 -6.5t8.5 -11.5q0 -6 0.5 -11t-0.5 -5q-19 -12 -29 -19.5t-17 -13.5t-14.5 -13t-21.5 -18q-11 -2 -45 29l-69 54z" />
    <glyph glyph-name="FL0178h" unicode="&#x178;" horiz-adv-x="422" 
d="M168 36l5 -12q4 -5 14.5 -13.5t17.5 -10.5q22 16 27 46.5t3 65t-5.5 68.5t2.5 58q13 42 32 80t39 75t39.5 74.5t33.5 79.5q-5 5 -15.5 13t-17.5 12l-5 1t-9 1q-3 0 -6.5 -1l-3.5 -1l-130 -191l-75 197h-7q-6 0 -14.5 -1.5t-11.5 -4.5q-10 -5 -13 -14.5t-1.5 -21.5t6 -26
t9.5 -28q11 -29 23.5 -52t16.5 -25q7 -23 11.5 -54.5t7 -67t4.5 -72.5t5 -70.5t7 -61t11 -43.5zM244 693l15 -52q17 2 33 3t24 1q5 0 4 1l8 41q0 4 -6 8.5t-14 7.5t-15.5 4t-11.5 -1zM102 681l11 -48q10 1 21.5 1.5t20.5 1.5t14.5 2t4.5 3l8 39q0 5 -6.5 9t-14.5 6.5
t-16 3.5t-12 -1z" />
    <glyph glyph-name="FL00A1h" unicode="&#xa1;" 
d="M127 362l-11 -360l-2 -1t-6 -1q-7 0 -11 1l-4 1q-4 3 -10.5 6t-12.5 6.5t-9 6.5t-1 5l10 336h57zM141 480l-43 -7q-3 0 -10.5 1t-15 3.5t-13.5 6.5t-6 11l7 46q-2 1 3 2t14 1.5t19.5 1.5t20.5 4z" />
    <glyph glyph-name="FL00A2h" unicode="&#xa2;" horiz-adv-x="473" 
d="M223 3l4 109q-49 7 -86 27t-60 58q-18 31 -13.5 70t26 76t58.5 67t83 45l2 97l2 1t6 1q7 0 11.5 -1l4.5 -1q9 -5 21 -13.5t11 -10.5l-2 -62h11q39 0 73 -10t51 -36q-39 1 -73 -2.5t-63 -10.5l-6 -216q23 4 46 7.5t54 3.5q12 -20 8 -37t-18.5 -29.5t-38 -20t-51.5 -7.5h-1
l-2 -105h-58zM197 183h31l4 206q-35 -16 -57.5 -38.5t-28.5 -49t6 -57t45 -61.5z" />
    <glyph glyph-name="FL00A3h" unicode="&#xa3;" horiz-adv-x="338" 
d="M71 512l-4 -12l7 -500h205l13 36h-167q-1 0 -1.5 15t-0.5 35q0 21 1 43.5t5 37.5q2 2 3 10.5t4 15.5q6 17 18 25t26 13.5t29 11.5t28 19q1 13 -13 22.5t-32.5 14.5t-35 7.5t-20.5 2.5l-28 238q-7 -2 -17 -10.5t-15 -13.5z" />
    <glyph glyph-name="FL00A4h" unicode="&#xa4;" horiz-adv-x="444" 
d="M133 194l7 -19l-73 -151q4 -5 14.5 -13.5t17.5 -10.5l5 -1t9 -1q5 0 7.5 1l2.5 1l64 105q25 -12 59 -12q29 0 52 14q16 -33 31 -58t23 -25h36l-50 127q15 25 23.5 56t10.5 64t-1.5 64.5t-12.5 57.5q-3 5 -5.5 10t-6.5 10l52 110l-9 24h-47l-52 -84q-12 5 -25 9t-25 4
q-6 0 -11 -0.5t-10 -1.5q-14 23 -26.5 44.5t-17.5 28.5q-5 5 -15.5 13t-18.5 12l-26 -25l43 -110q-19 -22 -29 -52.5t-12.5 -64t2 -66.5t14.5 -60zM194 240q-6 19 -7.5 44.5t4 48t18 38t33.5 15.5q15 0 29.5 -12.5t21.5 -30.5q7 -20 7.5 -47t-5 -51t-18 -41t-32.5 -17
q-33 0 -44 32z" />
    <glyph glyph-name="FL00A5h" unicode="&#xa5;" horiz-adv-x="458" 
d="M68 250l-1 71q2 5 32 5.5t74 -1.5q-4 23 -7 43.5t-8 36.5q-4 2 -17 25t-24 52q-5 14 -9 28t-5.5 26t1.5 21.5t12 14.5q3 3 11.5 4.5t14.5 1.5h8l75 -197l129 191l4 1t7 1t8 -1l5 -1q8 -4 18.5 -12t15.5 -13q-20 -62 -51.5 -115.5t-59.5 -110.5h35q20 0 38.5 2.5
t28.5 10.5l-13 -76q-1 0 -9 1.5t-11 1.5q-7 -4 -34 -5t-62 -2q-1 -3 -2.5 -7t-3.5 -9q-2 -8 -2.5 -18t-0.5 -21q10 -2 19 -2h18h34q20 0 38.5 2.5t28.5 9.5l-13 -76q-1 0 -9 1.5t-11 1.5q-7 -3 -35 -4t-67 -2q4 -40 0.5 -76.5t-28.5 -53.5q-7 2 -17 10.5t-15 13.5l-4 12
q-8 14 -11 37.5t-7 55.5h-46q-32 0 -52 -2l-20 -2l-1 72q2 4 35 5.5t80 -1.5l-5 52h-43q-19 0 -34 -0.5t-23.5 -1t-8.5 -1.5z" />
    <glyph glyph-name="FL00A6h" unicode="&#xa6;" 
d="M63 -153l-2 802l2 1t6 1q7 0 11.5 -1l4.5 -1q4 -3 10 -6.5t11.5 -7t8.5 -7t2 -4.5l4 -777h-58z" />
    <glyph glyph-name="FL00A7h" unicode="&#xa7;" horiz-adv-x="361" 
d="M70 90h-1q0 1 -0.5 5t-1.5 11q1 7 11 18t17 19q5 -7 21 -15.5t34 -16t34.5 -12.5t23.5 -5q19 0 19 19q0 17 3.5 31t-8.5 20q-6 7 -16 11t-22 19h2h-1v2q-29 3 -58.5 19.5t-40.5 45.5h-1q0 1 -1 4.5t-2 10.5q0 4 9 16q-1 5 -1 17q0 13 8.5 24t22.5 19.5t32.5 14.5t38.5 9
q-9 8 -21.5 16t-23.5 16t-20.5 16t-12.5 15q-8 22 -8 41t18 33t44.5 23t58 13t58.5 4l27 -63l-89 -7q-17 0 -29 -4t-12 -14v-6q4 -8 14.5 -16.5t23.5 -17.5t25 -18t18 -18q2 -3 3 -4t2 -3h2v-2q5 -5 10.5 -7.5t10.5 -6.5t10.5 -10t10.5 -18q4 -9 1 -22t-8.5 -27t-10.5 -26
t-5 -19q-12 -32 -24 -42q8 -5 15.5 -11t16.5 -23q4 -9 0.5 -22.5t-9 -27.5t-10.5 -26.5t-5 -19.5q-8 -22 -16.5 -33t-19.5 -15t-26 -3t-35 4q-31 0 -62.5 17t-43.5 48zM242 283q0 7 2 15.5t3 16.5l-39 -3q-17 0 -29.5 -4t-12.5 -15v-4q1 -6 4 -10q17 -7 31.5 -10.5
t21.5 -3.5q19 0 19 18z" />
    <glyph glyph-name="FL00A8h" unicode="&#xa8;" horiz-adv-x="338" 
d="M208 565l15 -53q17 2 33.5 4t24.5 2q4 0 3 1l8 39q0 6 -6 10t-14 6.5t-15.5 3.5t-11.5 0zM67 553l10 -49q10 2 22 3t21 1.5t14.5 1t3.5 2.5l8 40q0 5 -6 9t-14 6.5t-16 3t-12 -0.5z" />
    <glyph glyph-name="FL00A9h" unicode="&#xa9;" horiz-adv-x="327" 
d="M79 314q-12 32 -12.5 75.5t11.5 82.5t36.5 66.5t61.5 27.5q11 0 24 -5t25.5 -13.5t22 -19t14.5 -22.5q13 -34 16.5 -80.5t-6.5 -89t-34 -72t-65 -29.5q-15 0 -29.5 7t-27 18t-22 25t-15.5 29zM123 306l6 -14q5 -11 12 -19t21 -8q19 0 33 12.5t23.5 32t14.5 44t6 48.5
t-1.5 46t-7.5 36q-3 6 -6 15t-8 17t-12.5 14t-17.5 6q-32 0 -50 -26t-24.5 -62t-3 -75.5t14.5 -66.5zM135 351q-5 21 -4 48t6.5 51t15.5 40t24 16q18 0 25 -31q-17 0 -27.5 -11t-15 -29.5t-4 -42.5t6.5 -50q15 0 23 5.5t21 5.5q6 -24 -2 -40t-20 -16q-17 0 -29 11t-20 43z
" />
    <glyph glyph-name="FL00AAh" unicode="&#xaa;" horiz-adv-x="247" 
d="M167 361q-3 0 -12.5 7t-20 15t-19.5 15t-11 6q-6 -4 -8 -17t-4 -27.5t-6.5 -25.5t-15.5 -11q-5 10 -3.5 16l3.5 14q3 13 8 33.5t10 43.5t10.5 46.5t10 42.5t7.5 31t4 12l5 10q14 -3 18 -13l7 -14q1 -5 4.5 -11.5t3.5 -7.5q4 -19 11.5 -52.5t14.5 -66t12 -57t4 -25.5
l-7 -9q-12 0 -18 12t-7 21.5t-1 11.5zM133 506q-5 -12 -9.5 -20.5t-7 -16.5t-2 -17t6.5 -22q18 -4 25 1t7 14q0 10 -4.5 22.5t-9.5 24.5z" />
    <glyph glyph-name="FL00ABh" unicode="&#xab;" horiz-adv-x="446" 
d="M399 72l-23 -42l-95 100q-52 48 -52 66q17 22 28 34t20.5 23.5t20.5 27t29 44.5q1 2 8.5 2.5t15.5 0.5t15.5 -0.5t9.5 -0.5l-65 -131zM237 70l-24 -42l-96 99q-50 50 -50 66q17 23 27.5 35.5t20 23.5t20.5 26.5t29 44.5q6 2 23 2q10 0 17.5 -0.5t8.5 -0.5l-65 -131z" />
    <glyph glyph-name="FL00ACh" unicode="&#xac;" horiz-adv-x="522" 
d="M69 186h33t81 0.5t101 1.5t94 3l6 -120q4 1 10 1l63 -3l12 127q0 3 -3 8l10 64q-8 -7 -26.5 -9.5t-38.5 -2.5h-202q-28 0 -53.5 -0.5t-45 -1.5t-31 -3t-12.5 -4z" />
    <glyph glyph-name="FL00ADh" unicode="&#xad;" horiz-adv-x="294" 
d="M68 186q0 2 19.5 2.5t44.5 1.5t49.5 2t35.5 4q3 0 11 -1.5t9 -1.5l11 75q-8 -7 -26.5 -9.5t-38.5 -2.5q-60 0 -87 5.5t-29 -3.5z" />
    <glyph glyph-name="FL00BCh" unicode="&#xae;" horiz-adv-x="1317" 
d="M1262 258q0 13 -26.5 27.5t-78.5 35.5q57 9 57 48v4q0 5 -1 5l-157 44q31 8 31 48l-15 18h-192l7 50l-53 6l-161 -31l-8 7l8 24l-31 28l-143 -76l-70 48q-22 -7 -45 -31.5t-50 -65.5l-90 33h-5q-34 0 -34 -119l-96 9l-5 -49l46 -58l-88 -16l8 -41l89 -42l-50 -42
q0 -15 6 -24t18 -9l126 -25l-23 -24v-33l207 -17l-8 -41l25 -16l196 34v-50l25 -10l153 83l46 -52l40 11l78 91q52 -34 83 -34q19 0 30 18l8 98l78 -17q13 3 20 12.5t7 23.5v6q0 9 -2 9l-49 66h71l16 33q0 1 1 2zM1236 247l-101 -9q64 -76 64 -98q0 -4 -2 -10l-103 17
l-7 -117l-103 34l-81 -97l-69 48l-161 -82l8 34l-25 32l-196 -42l23 58l-224 9l65 47l-191 44l87 41l-134 74l105 8l-58 74l-8 35l103 -9l16 117q23 -19 44 -29t35 -10q5 0 9.5 1t9.5 5l87 98l62 -50l143 74l16 -6l6 -50l208 32l-16 -57h213l-63 -50l182 -43l10 -16h-10
l-77 -23l124 -68zM1083 306l-35 6l-6 -111l23 -4zM1070 152l-22 9l-19 -15l18 -16zM1009 161v146l-23 5l-6 -100l-80 94l3 -147l20 2v71q54 -71 86 -71zM876 161l-2 112q-5 22 -14 33t-24 11q-1 0 -16 -5q-26 -35 -40 -71t-19 -73h30q20 33 37 33q16 0 30 -33zM746 312
l-28 -3l-14 -150l34 10zM679 156v143l-25 10l-4 -103l-83 93l3 -147l22 4v72q51 -72 87 -72zM552 258q-12 50 -56 50h-8l-2.5 -0.5t-7.5 -0.5q-49 -37 -49 -129q4 -25 47 -25q5 0 9.5 1t11.5 2q42 0 55 102zM416 312q-102 -19 -102 -85v-10q0 -3 1 -11q7 -33 21 -48t34 -15
q5 0 12 1t17 4l-2 26q-7 -3 -14.5 -4t-12.5 -1q-30 0 -30 30q0 32 21 59q10 11 20 14.5t18 3.5h8t8 -1zM300 309l-26 -7l-15 -150l33 12zM850 232h-45l30 50zM527 237q0 -25 -13 -44q-27 -11 -37 -11q-22 0 -22 35v11q19 47 41 47q17 0 26 -20q5 -6 5 -18z" />
    <glyph glyph-name="FL00AFh" unicode="&#xaf;" horiz-adv-x="378" 
d="M17 576q0 2 21.5 3.5t54 3t71.5 2.5t74 3t60.5 4t32.5 5q3 0 11 -2t9 -2l4 61q-3 -2 -21.5 -2.5t-41.5 -0.5t-44 0.5t-29 0.5q-32 0 -65.5 1t-64.5 1q-29 0 -50.5 -1t-22.5 -4z" />
    <glyph glyph-name="FL00B0h" unicode="&#xb0;" horiz-adv-x="197" 
d="M67 557l15 -53q17 2 33 3.5t24 1.5q6 0 4 2l8 39q0 6 -6 10t-14 6.5t-15.5 3.5t-11.5 0z" />
    <glyph glyph-name="FL00B1h" unicode="&#xb1;" horiz-adv-x="482" 
d="M212 413l71 1q5 -2 6 -32t0 -70h35q10 0 25 1.5t30.5 3.5t27.5 4.5t16 5.5l-11 -75q-1 0 -9 1t-12 1q-7 -3 -36 -5t-67 -3v-34q0 -20 2 -38.5t9 -27.5l-76 12q0 1 2 9t2 10q-4 7 -5 25t-2 42q-30 -2 -57.5 -3t-48.5 -2t-33.5 -1.5l-12.5 -0.5l-1 71q1 3 14 4.5t34 1.5h47
h55q-3 40 -3.5 69.5t-1.5 29.5zM77 24l-1 71q1 2 5 4t14 3.5t27.5 2.5t45.5 1h77h71h53q20 0 38.5 2t27.5 9l-12 -74q-1 0 -9 1t-10 1q-7 -1 -34 -3t-63.5 -4t-76.5 -4.5t-74 -4.5t-56.5 -3t-22.5 -2z" />
    <glyph glyph-name="FL00B2h" unicode="&#xb2;" horiz-adv-x="320" 
d="M72 499q19 0 32.5 6t25 13.5t22.5 13.5t25 6q20 0 30.5 -6t14 -16.5t1 -25t-8.5 -30.5q-6 -18 -21.5 -21.5t-34.5 -4.5t-37.5 -7.5t-30.5 -30.5q-10 -19 -16.5 -39.5t-6.5 -38.5q0 -17 8 -28t29 -11q40 -13 70 -16t49 1.5t27.5 15t7.5 25.5h-122q-29 0 -21.5 18.5
t38.5 65.5q21 7 38 12.5t31 13t25 19.5t19 33q18 46 -3 74.5t-69 28.5q-41 0 -72 -14.5t-50 -56.5z" />
    <glyph glyph-name="FL00B3h" unicode="&#xb3;" horiz-adv-x="319" 
d="M139 562q-13 0 -22 -2.5t-28 -18.5q0 4 -7 4h-6l-1 0.5t-1 3.5q1 12 2.5 19.5t7 12t16 6.5t29.5 2q18 0 37 -4.5t37 -12.5t32.5 -19.5t22.5 -25.5q7 -13 3 -24.5t-12 -22t-15 -20t-5 -18.5q-1 -2 6 -15q4 -8 11.5 -18t12.5 -21l8 -12q12 -32 -3 -51.5t-46 -31
t-70.5 -15.5t-75.5 -4q-3 6 -4 9.5t-1 7.5t0.5 9.5t0.5 16.5q11 -6 20 -6t16 2t11.5 3.5t7.5 -1.5q26 0 47 7t34 19t16 28t-6 34q-8 13 -29.5 15t-69.5 2q-9 2 -17 6t-13.5 8t-6.5 7t4 3q39 8 64 19t39 22.5t17.5 22.5t-0.5 19q-8 17 -21 26t-42 9z" />
    <glyph glyph-name="FL00B4h" unicode="&#xb4;" horiz-adv-x="196" 
d="M81 529l21 35q2 3 9.5 2.5t16 -4t15.5 -8.5t7 -10l-25 -31q2 -1 -3 -1q-4 0 -10 -4.5t-13.5 -9.5t-16 -9.5t-15.5 -5.5z" />
    <glyph glyph-name="FL00B5h" unicode="&#xb5;" horiz-adv-x="423" 
d="M374 335l2 -332q-39 -6 -57 -18t-20.5 -28t6.5 -35.5t24.5 -40.5t33.5 -42.5t33 -40.5q-46 0 -75 9.5t-48.5 28t-34.5 46.5t-33 65q-5 10 -15.5 34t-24 56t-28.5 68.5t-28.5 70t-23.5 61.5t-14 44q-1 3 -1.5 9.5t-1 14t-1 14t-0.5 9.5h47q10 -25 25 -66.5t32 -85.5
t35.5 -84.5t35.5 -62.5l70 -3l-7 326z" />
    <glyph glyph-name="FL00AEh" unicode="&#xb6;" horiz-adv-x="1279" 
d="M1255 457l-49 13l-9 -191l34 -5zM1236 196l-30 17l-31 -24l27 -30zM1147 210v247l-35 13l-8 -170l-122 157l6 -249l29 5v122q77 -125 130 -125zM945 213l-2 186q-10 79 -52 79q-17 0 -26 -9q-80 -118 -89 -246h44q27 56 52 56q28 0 50 -56zM751 470l-38 -7l-23 -255
l51 17zM652 202v247l-38 14l-6 -173l-123 157l5 -251l32 6v122q76 -122 130 -122zM463 376q-20 85 -89 85h-9q-3 0 -12 -4q-78 -54 -78 -215q12 -43 70 -43q10 0 17.5 1t18.5 2q61 0 82 174zM259 467q-153 -27 -153 -144q0 -9 0.5 -15t0.5 -18q20 -111 80 -111q11 0 21 1.5
t22 10.5l-1 41q-5 -4 -42 -4q-44 0 -44 48q0 54 33 100q25 36 54 36q17 0 23 -6zM83 463l-39 -11l-20 -256l48 21zM910 335h-69l42 81zM423 340q0 -17 -3 -35t-14 -35q-37 -25 -59 -25q-32 0 -32 62v17q29 79 63 79q24 0 38 -33q7 -10 7 -30z" />
    <glyph glyph-name="FL00B7h" unicode="&#xb7;" horiz-adv-x="213" 
d="M60 267l27 -71q16 5 34.5 6t25.5 1t5 2l8 50q0 6 -6.5 11t-14.5 8.5t-17 4.5t-13 0z" />
    <glyph glyph-name="FL00B8h" unicode="&#xb8;" horiz-adv-x="173" 
d="M125 -102l-5 101q1 3 -4 6t-12.5 4t-17 -1t-18.5 -10l4 -43l-64 -40q0 -6 10.5 -11.5t24 -9.5t26 -6t16.5 -1z" />
    <glyph glyph-name="FL00B9h" unicode="&#xb9;" horiz-adv-x="229" 
d="M116 334v196l-37 6l-12 36l116 -2l-9 -261q1 -14 -10 -21t-26 -7z" />
    <glyph glyph-name="FL00BAh" unicode="&#xba;" horiz-adv-x="344" 
d="M83 353q-14 29 -16 66.5t9 71t36 56.5t66 23q32 0 62 -18t42 -46q13 -30 14.5 -70t-10 -76t-37 -61t-65.5 -25q-65 0 -86 45zM219 523q-40 0 -61 -20.5t-27.5 -51.5t-1.5 -66t18 -64q37 0 57.5 21.5t27.5 52.5t3 66t-16 62z" />
    <glyph glyph-name="FL00BBh" unicode="&#xbb;" horiz-adv-x="446" 
d="M67 72l23 -42l95 100q52 48 52 66q-17 22 -28 34.5t-20.5 23.5t-20.5 26.5t-29 44.5q-1 2 -9 2.5t-16 0.5t-15.5 -0.5t-8.5 -0.5l65 -131zM229 70l24 -42l94 99q52 49 52 66q-17 23 -27.5 35.5t-19.5 23.5t-20.5 26.5t-30.5 44.5q-1 1 -8 1.5t-17 0.5q-8 0 -15 -0.5
t-8 -0.5l64 -131z" />
    <glyph glyph-name="FL00BEh" unicode="&#xbc;" horiz-adv-x="635" 
d="M100 0l278 535q2 5 6.5 12.5t8.5 10.5q8 -3 18 -10.5t15 -12.5l2.5 -4.5t3.5 -8.5q4 -2 3 -5.5t0 -5.5l-271 -511h-64zM116 312v197l-37 5l-12 36l116 -1l-9 -260q1 -16 -10 -23t-26 -7zM354 291q7 -1 18 -5.5t16 -7.5l3 -7l5 -5q-1 -4 -2 -14t-2 -21.5t-0.5 -21.5
t2.5 -13q0 -2 3 -4.5t6.5 -6t7 -6.5t4.5 -5q19 0 37.5 -2.5t33.5 -3.5t25 1.5t12 12.5l21 110q7 -1 19.5 -6t17.5 -8l2 -2.5t5 -4.5q2 -2 1 -3.5t0 -1.5q-2 -13 -3.5 -46.5t-3 -70.5t-3 -70.5t-3.5 -46.5l-9 -55h-30q-14 21 -15.5 39t0 35.5t1 35.5t-13.5 38q-1 0 -9 2
t-10 2q-11 -2 -35.5 -3.5t-49.5 -2.5t-43.5 -2l-18.5 -1l-5 158z" />
    <glyph glyph-name="FL00BDh" unicode="&#xbd;" horiz-adv-x="672" 
d="M430 209q17 43 48.5 57.5t73.5 14.5q48 0 68 -29t3 -75q-9 -21 -19.5 -32.5t-24.5 -19t-30.5 -13t-37.5 -13.5q-32 -47 -40 -65.5t22 -18.5h122q3 -30 -35 -40.5t-120 15.5q-20 0 -28 11t-8 28t7 37.5t16 39.5q12 25 30.5 31.5t37.5 7.5t34.5 4t22.5 21q5 16 7.5 30.5
t-0.5 25t-13.5 16.5t-30.5 6q-14 0 -25.5 -6t-23 -13.5t-25 -13.5t-31.5 -6zM168 0l278 535q1 5 5.5 12.5t8.5 10.5q7 -3 17.5 -10.5t15.5 -12.5l3 -4.5t4 -8.5q3 -2 2 -5.5t1 -5.5q-3 -30 -17.5 -69.5t-36.5 -84.5t-50 -93t-57 -95t-58 -90.5t-53 -78.5h-63zM184 312v197
l-37 5l-14 36l117 -1l-10 -260q2 -16 -9 -23t-26 -7z" />
    <glyph glyph-name="FL0FE7h" unicode="&#xbe;" horiz-adv-x="704" 
d="M139 531q-13 0 -22 -2.5t-28 -17.5q0 3 -7 3h-6l-1 0.5t-1 4.5q1 11 2.5 18.5t7 12t16 6.5t29.5 2q18 0 37 -4t37 -12t32.5 -19.5t22.5 -26.5q7 -12 3 -23.5t-12 -22t-15 -20t-5 -18.5q-2 -2 6 -15q4 -8 11.5 -18.5t12.5 -20.5l8 -13q12 -31 -3 -50.5t-46 -31
t-70.5 -15.5t-75.5 -4q-3 6 -4 9.5t-1 6.5q0 4 0.5 10t0.5 18q11 -7 20 -7t16 1.5t11.5 3t7.5 -1.5q26 0 47 7t34 19t16 28t-6 33q-8 13 -29.5 15.5t-69.5 2.5q-9 3 -17 7t-13.5 8t-6.5 7t4 3q39 7 64 18t39 22.5t17.5 22.5t-0.5 19q-8 17 -21 26t-42 9zM169 0l278 535
q2 5 6.5 12.5t7.5 10.5q7 -3 18 -10.5t16 -12.5l2.5 -4.5t3.5 -8.5q3 -2 2.5 -5.5t0.5 -5.5l-272 -511h-63zM423 291q7 -1 18 -5.5t16 -7.5l3 -7l5 -5q-2 -4 -3 -14t-1.5 -21.5t0 -21.5t2.5 -13q-1 -2 2 -4.5t7 -6t7.5 -6.5t4.5 -5q19 0 37.5 -2.5t33 -3.5t24.5 1.5t13 12.5
l20 110q8 -1 20.5 -6t17.5 -8l2 -2.5t4 -4.5t1 -3.5t1 -1.5q-2 -13 -3.5 -46.5t-3 -70.5t-3 -70.5t-3.5 -46.5l-9 -55h-30q-15 21 -16 39t0.5 35.5t1 35.5t-13.5 38q-2 0 -10 2t-10 2q-11 -2 -35 -3.5t-49 -2.5t-43.5 -2l-18.5 -1l-5 158z" />
    <glyph glyph-name="FL00BFh" unicode="&#xbf;" horiz-adv-x="406" 
d="M354 117q-26 -66 -72 -88.5t-105 -22.5q-34 0 -60 12t-40 33t-15.5 51t12.5 66q12 33 31 50t43 26.5t52 16t58 18.5q18 38 21 60t-0.5 33t-8 14t0.5 3q3 0 9.5 0.5t13.5 0t12.5 -2.5t5.5 -7q0 -11 4.5 -23t9 -24.5t6.5 -25t-3 -25.5q-8 -22 -22 -32t-31 -14t-36 -5.5
t-36.5 -5.5t-31.5 -14t-22 -32q-10 -25 -14 -47.5t0.5 -39.5t20 -27t45.5 -10q20 0 36.5 9.5t33.5 21.5t36.5 21.5t45.5 9.5zM315 466l-40 -13q-3 -1 -10 0.5t-13.5 4.5t-11.5 7.5t-5 10.5l5 46q-1 2 4 3t13 1.5t17.5 1.5t17.5 3z" />
    <glyph glyph-name="FL00C0h" unicode="&#xc0;" horiz-adv-x="411" 
d="M290 114l1 -17t6.5 -38t17 -39t32.5 -20l15 24q1 1 -3 24.5t-12 61t-18.5 84t-21.5 94t-20.5 91t-16.5 73.5q0 2 -2 8.5t-5 14.5t-6 15.5t-4 12.5l-15 38q-10 26 -38 31l-15 -25q-1 -1 -7 -25.5t-16 -63.5t-22.5 -88.5t-24.5 -99.5t-23.5 -96t-19.5 -79q-2 -11 -3.5 -20
t-2 -17.5t1 -18t6.5 -21.5q24 0 34.5 16t16 37t10 41.5t16.5 30.5q6 3 26 -1.5t43.5 -10.5t43.5 -11.5t26 -5.5zM217 405l13 -36q12 -29 21.5 -57.5t8.5 -51.5t-16.5 -37t-54.5 -14q-12 33 -13.5 56t3.5 43.5t15.5 42.5t22.5 54zM244 653l-15 46l-21 35q-2 3 -10 2.5
t-16.5 -4t-15 -8.5t-6.5 -10l24 -30q-2 -2 3 -2q4 0 10.5 -4t14 -9.5t16 -10t16.5 -5.5z" />
    <glyph glyph-name="FL00C1h" unicode="&#xc1;" horiz-adv-x="411" 
d="M290 114l1 -17t6.5 -38t17 -39t32.5 -20l15 24q1 1 -3 24.5t-12 61t-18.5 84t-21.5 94t-20.5 91t-16.5 73.5q0 2 -2 8.5t-5 14.5t-6 15.5t-4 12.5l-15 38q-10 26 -38 31l-15 -25q-1 -1 -7 -25.5t-16 -63.5t-22.5 -88.5t-24.5 -99.5t-23.5 -96t-19.5 -79q-2 -11 -3.5 -20
t-2 -17.5t1 -18t6.5 -21.5q24 0 34.5 16t16 37t10 41.5t16.5 30.5q6 3 26 -1.5t43.5 -10.5t43.5 -11.5t26 -5.5zM217 405l13 -36q12 -29 21.5 -57.5t8.5 -51.5t-16.5 -37t-54.5 -14q-12 33 -13.5 56t3.5 43.5t15.5 42.5t22.5 54zM184 661l-15 -46q8 1 16.5 5.5t16 10
t13.5 9.5t10 4q5 0 4 1l24 31q0 5 -7 10t-15.5 8t-16 4t-9.5 -2z" />
    <glyph glyph-name="FL00C2h" unicode="&#xc2;" horiz-adv-x="411" 
d="M290 114l1 -17t6.5 -38t17 -39t32.5 -20l15 24q1 1 -3 24.5t-12 61t-18.5 84t-21.5 94t-20.5 91t-16.5 73.5q0 2 -2 8.5t-5 14.5t-6 15.5t-4 12.5l-15 38q-10 26 -38 31l-15 -25q-1 -1 -7 -25.5t-16 -63.5t-22.5 -88.5t-24.5 -99.5t-23.5 -96t-19.5 -79q-2 -11 -3.5 -20
t-2 -17.5t1 -18t6.5 -21.5q24 0 34.5 16t16 37t10 41.5t16.5 30.5q6 3 26 -1.5t43.5 -10.5t43.5 -11.5t26 -5.5zM217 405l13 -36q12 -29 22.5 -61t10 -57t-16.5 -38t-57 -4q-12 33 -13.5 56t3.5 43.5t15.5 42.5t22.5 54zM284 611l25 17l-71 51q-36 27 -46 26
q-14 -11 -21.5 -18t-14 -14t-16 -15.5t-26.5 -21.5q-1 0 -0.5 -5t0.5 -11q1 -5 9 -11l8 -6l66 53z" />
    <glyph glyph-name="FL00C3h" unicode="&#xc3;" horiz-adv-x="411" 
d="M230 369l-13 36q-12 -32 -22.5 -54t-15.5 -42.5t-3.5 -43.5t13.5 -56q41 -9 57 4t16.5 38t-10 57t-22.5 61zM290 114q-6 0 -26 5.5t-43.5 11.5t-43.5 10.5t-26 1.5q-12 -10 -16.5 -30.5t-10 -41.5t-16 -37t-34.5 -16q-5 12 -6.5 21.5t-1 18t2 17.5t3.5 20q8 33 19.5 79
t23.5 96t24.5 99.5t22.5 88.5t16.5 63.5t6.5 25.5l15 25q28 -5 38 -31l15 -38q1 -5 4 -12.5t6 -15.5t5 -14.5t2 -8.5q7 -31 17 -74t20.5 -90.5t21 -94t18 -83.5t12 -61t3.5 -25l-15 -24q-21 2 -32.5 20t-17 39t-6.5 38zM253 624q-10 -1 -26 17v1h-2v1l-48 32l-45 -49l-5 5.5
t-6 10.5q0 5 -0.5 9.5t0.5 4.5q12 12 18.5 19t11.5 13.5t10 13.5t14 18q3 2 26 -21l46 -30l46 49l6 -5.5t7 -9.5q0 -5 0.5 -10t-0.5 -5q-12 -13 -18.5 -20.5t-11 -14t-9.5 -13t-14 -16.5z" />
    <glyph glyph-name="FL00C4h" unicode="&#xc4;" horiz-adv-x="411" 
d="M290 114l1 -17t6.5 -38t17 -39t32.5 -20l15 24q1 1 -3 24.5t-12 61t-18.5 84t-21.5 94t-20.5 91t-16.5 73.5q0 2 -2 8.5t-5 14.5t-6 15.5t-4 12.5l-15 38q-10 26 -38 31l-15 -25q-1 -1 -7 -25.5t-16 -63.5t-22.5 -88.5t-24.5 -99.5t-23.5 -96t-19.5 -79q-2 -11 -3.5 -20
t-2 -17.5t1 -18t6.5 -21.5q24 0 34.5 16t16 37t10 41.5t16.5 30.5q6 3 26 -1.5t43.5 -10.5t43.5 -11.5t26 -5.5zM217 405l13 -36q12 -29 21.5 -57.5t8.5 -51.5t-16.5 -37t-54.5 -14q-12 33 -13.5 56t3.5 43.5t15.5 42.5t22.5 54zM238 668l16 -53q16 2 32.5 3.5t24.5 1.5
q6 0 4 2l8 39q0 6 -6 10t-14 6.5t-16 3.5t-12 0zM97 656l10 -49q11 2 22.5 3t20.5 1.5t14.5 1t3.5 2.5l8 39q0 6 -6 10t-14 6t-15.5 3t-11.5 0z" />
    <glyph glyph-name="FL00C5h" unicode="&#xc5;" horiz-adv-x="411" 
d="M290 114l1 -17t6.5 -38t17 -39t32.5 -20l15 24q1 1 -3 24.5t-12 61t-18.5 84t-21.5 94t-20.5 91t-16.5 73.5q0 2 -2 8.5t-5 14.5t-6 15.5t-4 12.5l-15 38q-10 26 -38 31l-15 -25q-1 -1 -7 -25.5t-16 -63.5t-22.5 -88.5t-24.5 -99.5t-23.5 -96t-19.5 -79q-2 -11 -3.5 -20
t-2 -17.5t1 -18t6.5 -21.5q24 0 34.5 16t16 37t10 41.5t16.5 30.5q6 3 26 -1.5t43.5 -10.5t43.5 -11.5t26 -5.5zM217 405l13 -36q12 -29 21.5 -57.5t8.5 -51.5t-16.5 -37t-54.5 -14q-12 33 -13.5 56t3.5 43.5t15.5 42.5t22.5 54zM168 682l16 -53q16 3 32 4.5t24 1.5q6 0 5 1
l8 40q0 5 -6 9t-14 7t-16 4t-12 0z" />
    <glyph glyph-name="FL00C6h" unicode="&#xc6;" horiz-adv-x="588" 
d="M290 108q-6 0 -26 5.5t-43.5 11.5t-43.5 10.5t-26 2.5q-12 -9 -16.5 -29.5t-10 -41.5t-16 -37t-34.5 -16q-5 12 -6.5 21t-1 17.5t2 17.5t3.5 20q8 33 19.5 79l24 96t24.5 99t22 88.5t16 64.5t7 26l15 23q27 -3 38 -30l15 -39q1 -5 4 -12.5t6 -15.5t5 -14.5t2 -7.5
q9 -43 22.5 -107t28.5 -128l10 335h190l1 -42q-60 9 -93 -2.5t-45 -37.5t-7 -63t21 -78q8 0 20 4t25.5 5.5t26.5 -3t23 -21.5q-1 -14 -11.5 -21t-25 -14t-31 -16.5t-28 -29t-16.5 -51.5t4 -82q0 -6 5.5 -14.5t9.5 -14t5 -6.5h114l22 -60h-190l-4 -6q-4 2 -8.5 3.5l-7.5 2.5
h-14v12q-13 16 -19 39.5t-7 39t-1 17.5zM217 399q-12 -32 -22 -54t-15.5 -42.5t-4 -43t13.5 -55.5q39 0 54.5 14.5t16.5 37t-8.5 51t-21.5 56.5z" />
    <glyph glyph-name="FL00C7h" unicode="&#xc7;" horiz-adv-x="394" 
d="M256 -99l-6 96q22 1 38 5.5t27.5 15.5t18 29.5t9.5 47.5l-34 25q-6 -7 -17.5 -19.5t-25.5 -25t-29.5 -21.5t-31.5 -9q-12 0 -21.5 8t-17.5 19.5t-13.5 24.5t-9.5 23q-12 30 -16 69.5t-1.5 82t13 83.5t28.5 73t44 52t60 20h12l33 -24q4 -2 17 -4t14 -2q-15 44 -34.5 62
t-60.5 18q-45 0 -78.5 -21.5t-56.5 -57t-35 -80.5t-15 -92t3.5 -92.5t20.5 -81.5l25 -65q12 -35 50 -60q2 -1 12 -1.5t21 -1.5l5 -40l-65 -39q0 -6 10.5 -11.5t24 -9.5t25.5 -6t16 0z" />
    <glyph glyph-name="FL00C8h" unicode="&#xc8;" horiz-adv-x="336" 
d="M67 0l12 547h191l1 -42q-60 9 -92.5 -2.5t-45 -37.5t-7.5 -63t21 -78q8 0 20 4t25 5.5t26 -3t24 -21.5q-1 -14 -11.5 -21t-25.5 -14t-31.5 -16.5t-28 -29t-16.5 -51.5t4 -82q1 -6 6 -14.5t9 -14t5 -6.5h114l23 -60h-223zM210 615q-8 1 -16 5.5t-15.5 10t-13.5 9.5t-10 4
q-5 0 -4 1l-24 31q0 5 6.5 10t15 8.5t16.5 4t10 -2.5l21 -35z" />
    <glyph glyph-name="FL00C9h" unicode="&#xc9;" horiz-adv-x="336" 
d="M67 0l12 547h191l1 -42q-60 9 -92.5 -2.5t-45 -37.5t-7.5 -63t21 -78q8 0 20 4t25 5.5t26 -3t24 -21.5q-1 -14 -11.5 -21t-25.5 -14t-31.5 -16.5t-28 -29t-16.5 -51.5t4 -82q1 -6 6 -14.5t9 -14t5 -6.5h114l23 -60h-223zM152 668l22 35q1 3 9 2.5t16 -4t15 -9t7 -10.5
l-24 -30q2 -1 -4 -1q-4 0 -10 -4.5t-13.5 -9.5t-15.5 -9.5t-16 -5.5z" />
    <glyph glyph-name="FL00CAh" unicode="&#xca;" horiz-adv-x="336" 
d="M67 0l12 547h191l1 -42q-60 9 -92.5 -2.5t-45 -37.5t-7.5 -63t21 -78q8 0 20 4t25 5.5t26 -3t24 -21.5q-1 -14 -11.5 -21t-25.5 -14t-31.5 -16.5t-28 -29t-16.5 -51.5t4 -82q1 -6 6 -14.5t9 -14t5 -6.5h114l23 -60h-223zM258 610l-88 44l-65 -53l-8 6.5t-10 11.5
q0 6 -0.5 11t0.5 5q17 13 26.5 21t16.5 15t14.5 14t21.5 19q9 1 46 -27l71 -50z" />
    <glyph glyph-name="FL00CBh" unicode="&#xcb;" horiz-adv-x="336" 
d="M67 0l12 547h191l1 -42q-60 9 -92.5 -2.5t-45 -37.5t-7.5 -63t21 -78q8 0 20 4t25 5.5t26 -3t24 -21.5q-1 -14 -11.5 -21t-25.5 -14t-31.5 -16.5t-28 -29t-16.5 -51.5t4 -82q1 -6 6 -14.5t9 -14t5 -6.5h114l23 -60h-223zM208 659l37 13q4 1 11.5 0t15.5 -4t14 -7t6 -9
l-8 -40q1 -1 -3 -1q-8 0 -24.5 -1.5t-33.5 -3.5zM67 656l31 17q4 1 12 0.5t16 -3t14 -7t6 -9.5l-8 -39q2 -2 -3.5 -2.5t-14.5 -1t-21 -1.5t-22 -3z" />
    <glyph glyph-name="FL00CCh" unicode="&#xcc;" 
d="M67 0h56l13 523q1 2 -2.5 5t-8.5 6.5t-11 7t-10 5.5l-4.5 1.5t-12.5 1.5q-3 0 -5.5 -1.5l-2.5 -1.5zM139 642l-15 46l-20 34q-2 3 -10 2.5t-16.5 -4t-15.5 -8.5t-7 -9l24 -31q-2 -2 4 -2q4 0 10 -4l13.5 -9t16 -9.5t16.5 -5.5z" />
    <glyph glyph-name="FL00CDh" unicode="&#xcd;" 
d="M67 0h56l13 523q1 2 -2.5 5t-8.5 6.5t-11 7t-10 5.5l-4.5 1.5t-12.5 1.5q-3 0 -5.5 -1.5l-2.5 -1.5zM77 659l-15 -47q8 1 16 6t15.5 10t13.5 9.5t10 4.5q6 0 5 1l24 30q0 5 -7 10t-15.5 9t-16 4.5t-9.5 -3.5z" />
    <glyph glyph-name="FL00CEh" unicode="&#xce;" 
d="M67 0h56l13 523q1 2 -2.5 5t-8.5 6.5t-11 7t-10 5.5l-4.5 1.5t-12.5 1.5q-3 0 -5.5 -1.5l-2.5 -1.5zM182 614l24 17l-71 50q-34 28 -46 26q-14 -11 -21.5 -18t-15 -13.5t-16.5 -15t-26 -22.5q-1 0 -0.5 -4.5t0.5 -10.5q2 -5 10 -11l8 -6l66 53z" />
    <glyph glyph-name="FL00CFh" unicode="&#xcf;" 
d="M67 0h56l13 523q1 2 -2.5 5t-8.5 6.5t-11 7t-10 5.5l-4.5 1.5t-12.5 1.5q-3 0 -5.5 -1.5l-2.5 -1.5zM125 670l16 -52q16 2 32.5 3.5t25.5 1.5q4 0 3 1l8 40q0 5 -6 9t-13.5 7t-16 4t-12.5 0zM-16 659l10 -49q11 2 23 2.5t21 1.5t14 1.5t3 2.5l8 40q0 5 -6 8.5t-14 6
t-15.5 3.5t-11.5 0z" />
    <glyph glyph-name="FL00D0h" unicode="&#xd0;" horiz-adv-x="470" 
d="M68 228l-1 71q2 7 29.5 8t65.5 0q2 42 3.5 79.5t3.5 65.5q2 35 0.5 54.5t1 29.5t13 12t36.5 2q67 0 108 -26.5t68 -94.5q28 -75 28 -154q0 -57 -15 -108.5t-46 -91.5t-77 -63.5t-107 -23.5l-21 59v15v42q0 26 0.5 60t1.5 72q-18 -2 -34.5 -3.5t-29 -2t-20.5 -1.5z
M231 476l-8 -169h8q20 0 38.5 2t28.5 10l-13 -75q-1 0 -8.5 1t-10.5 1q-5 -3 -17 -3t-28 -4l-4 -96q-1 -4 -0.5 -14t1 -21.5t1.5 -22t1 -14.5q5 0 18 -1t18 -1q29 0 49 21.5t32.5 55.5t17.5 76t4.5 83.5t-6 77t-13.5 57.5q-11 27 -26.5 45t-42.5 18q-16 0 -28.5 -3.5
t-11.5 -23.5z" />
    <glyph glyph-name="FL00D1h" unicode="&#xd1;" horiz-adv-x="405" 
d="M131 554l150 -387l17 356q1 17 13 23.5t29 6.5q10 -28 14 -48.5t4 -43.5v-16v-8t1 -8q-2 -15 -3 -46.5t-2 -71.5t-1.5 -84.5t-1.5 -84.5t-2 -71.5t-3 -46.5q0 -20 -15 -25.5t-32 -5.5l-151 383q-13 -19 -16.5 -54.5t-2.5 -78.5t3 -87.5t1 -81t-8.5 -60t-26.5 -23.5
l-31 80q0 1 0.5 23t1 57t1 79t2 89t3 86t3.5 71q0 16 1 30t6 24.5t15.5 17t30.5 6.5zM255 619q-10 -1 -26 16v1h-1v1l-49 32l-44 -49l-5.5 5.5t-6.5 10.5q0 5 -0.5 10t0.5 5q12 12 19 20t11.5 14t9.5 12.5t14 16.5q2 1 9.5 -4.5t17.5 -14.5l46 -31l47 49l5 -5.5t6 -10.5
q0 -5 0.5 -10t-0.5 -5q-12 -12 -18.5 -19.5t-11 -14t-9.5 -13t-14 -16.5z" />
    <glyph glyph-name="FL00D2h" unicode="&#xd2;" horiz-adv-x="468" 
d="M87 131q-13 36 -17.5 81t0 91.5t17.5 91t35.5 79t54.5 55.5t73 21q18 0 39.5 -8t41.5 -21.5t37 -31.5t25 -37q14 -38 21.5 -86.5t6.5 -99t-11.5 -99t-32 -86t-54.5 -60.5t-79 -23q-25 0 -49 12t-45 30.5t-37 42.5t-26 48zM161 116l9 -22q7 -17 20.5 -32t36.5 -15
q31 0 54 20.5t38.5 53.5t24 74t10.5 81.5t-2.5 77t-13.5 60.5q-4 10 -9 24.5t-13 28t-19.5 23.5t-29.5 10q-36 0 -61 -20t-41 -52.5t-23 -74t-6.5 -84t7 -83t18.5 -70.5zM288 644q-8 1 -16.5 5.5t-16 9.5t-14 9.5t-10.5 4.5t-3 2l-24 30q0 5 6.5 10t15 8.5t16.5 4t10 -2.5
l21 -35z" />
    <glyph glyph-name="FL00D3h" unicode="&#xd3;" horiz-adv-x="468" 
d="M87 131q-13 36 -17.5 81t0 91.5t17.5 91t35.5 79t54.5 55.5t73 21q18 0 39.5 -8t41.5 -21.5t37 -31.5t25 -37q14 -38 21.5 -86.5t6.5 -99t-11.5 -99t-32 -86t-54.5 -60.5t-79 -23q-25 0 -49 12t-45 30.5t-37 42.5t-26 48zM161 116l9 -22q7 -17 20.5 -32t36.5 -15
q31 0 54 20.5t38.5 53.5t24 74t10.5 81.5t-2.5 77t-13.5 60.5q-4 10 -9 24.5t-13 28t-19.5 23.5t-29.5 10q-36 0 -61 -20t-41 -52.5t-23 -74t-6.5 -84t7 -83t18.5 -70.5zM229 675l21 33q2 4 9.5 3.5t16 -4t15.5 -8.5t7 -10l-24 -30q1 -1 -4 -1q-4 0 -10 -4.5t-13.5 -9.5
t-16 -10t-16.5 -6z" />
    <glyph glyph-name="FL00D4h" unicode="&#xd4;" horiz-adv-x="468" 
d="M87 131q-13 36 -17.5 81t0 91.5t17.5 91t35.5 79t54.5 55.5t73 21q18 0 39.5 -8t41.5 -21.5t37 -31.5t25 -37q14 -38 21.5 -86.5t6.5 -99t-11.5 -99t-32 -86t-54.5 -60.5t-79 -23q-25 0 -49 12t-45 30.5t-37 42.5t-26 48zM161 116l9 -22q7 -17 20.5 -32t36.5 -15
q31 0 54 20.5t38.5 53.5t24 74t10.5 81.5t-2.5 77t-13.5 60.5q-4 10 -9 24.5t-13 28t-19.5 23.5t-29.5 10q-36 0 -61 -20t-41 -52.5t-23 -74t-6.5 -84t7 -83t18.5 -70.5zM332 611l-87 45l-67 -53l-8 6t-9 11q0 6 -0.5 11t0.5 5q18 13 27.5 21.5t16 15l14 14t20.5 18.5
q11 2 46 -26l73 -51z" />
    <glyph glyph-name="FL00D5h" unicode="&#xd5;" horiz-adv-x="468" 
d="M87 131q10 -24 26 -48t37 -42.5t45 -30.5t49 -12q46 0 79 23t54.5 60.5t32 86t11.5 99t-6.5 99t-21.5 86.5q-8 19 -25 37t-37 31.5t-41.5 21.5t-39.5 8q-41 0 -73 -21t-54.5 -55.5t-35.5 -79t-17.5 -91t0 -91.5t17.5 -81zM161 116q-12 30 -18.5 70.5t-7 83t6.5 84t23 74
t41 52.5t61 20q18 0 29.5 -10t19.5 -23.5t13 -28t9 -24.5q9 -24 13.5 -60.5t2.5 -77t-10.5 -81.5t-24 -74t-38.5 -53.5t-54 -20.5q-23 0 -36.5 15t-20.5 32zM282 620q9 11 14 17.5t9.5 13t11 14t18.5 19.5q1 0 0.5 4.5t-0.5 9.5q-1 5 -6.5 10.5l-5.5 5.5l-47 -49l-46 31
q-10 9 -17 14.5t-9 4.5q-10 -10 -15 -16.5t-9.5 -12.5t-11 -14t-18.5 -20q-2 0 -1 -5t1 -10q1 -5 6 -10l5 -5l45 48l48 -32v-1h1v-1q18 -18 27 -16z" />
    <glyph glyph-name="FL00D6h" unicode="&#xd6;" horiz-adv-x="468" 
d="M87 131q-13 36 -17.5 81t0 91.5t17.5 91t35.5 79t54.5 55.5t73 21q18 0 39.5 -8t41.5 -21.5t37 -31.5t25 -37q14 -38 21.5 -86.5t6.5 -99t-11.5 -99t-32 -86t-54.5 -60.5t-79 -23q-25 0 -49 12t-45 30.5t-37 42.5t-26 48zM161 116l9 -22q7 -17 20.5 -32t36.5 -15
q31 0 54 20.5t38.5 53.5t24 74t10.5 81.5t-2.5 77t-13.5 60.5q-4 10 -9 24.5t-13 28t-19.5 23.5t-29.5 10q-36 0 -61 -20t-41 -52.5t-23 -74t-6.5 -84t7 -83t18.5 -70.5zM274 668l37 13q4 1 12 0.5t16 -3.5t14 -7.5t6 -9.5l-8 -39q1 -2 -5 -2q-8 0 -24 -1.5t-32 -3.5z
M132 656l32 17q4 1 12 0.5t16 -3t14 -7t6 -9.5l-8 -39q2 -2 -3.5 -2.5t-15 -1t-21 -1.5t-21.5 -3z" />
    <glyph glyph-name="FL00D7h" unicode="&#xd7;" horiz-adv-x="412" 
d="M67 177l102 147l-75 158h10h18q22 0 30 -4q3 -2 11 -13.5t17.5 -24.5t18 -23.5t11.5 -11.5l3.5 -1t8.5 -1q4 0 7 1l3 1q5 1 18.5 9.5t28.5 19t27.5 20.5t14.5 14l44 -24q-48 -35 -74 -63t-26 -57q0 -18 8.5 -37.5t21 -41t26 -44.5t24.5 -48q-1 0 -6 -2t-11 -4t-11.5 -3.5
t-7.5 0.5q-15 5 -28 18t-23.5 28.5t-18.5 30.5t-11 24h-23l-110 -120z" />
    <glyph glyph-name="FL00D8h" unicode="&#xd8;" horiz-adv-x="468" 
d="M56 9l42 80q-3 3 -3 6q-15 38 -22 86.5t-6 99.5t11.5 99t32 86t55 61t79.5 23q39 0 78 -30l12 24q1 5 5.5 13t9.5 10q7 -2 17 -10t15 -13l3 -4.5t4 -8.5q3 -2 2 -5.5t0 -5.5q-1 -13 -4.5 -28t-8.5 -32q8 -11 12.5 -22t9.5 -22q13 -36 18 -80.5t0.5 -91t-17.5 -91
t-35.5 -79t-54.5 -55.5t-73 -21q-21 0 -47 11t-51 29q-5 -8 -9.5 -15t-9.5 -14h-65zM221 47q35 0 60 19t40.5 50t23 70.5t7.5 80.5q0 29 -2 56t-7 51q-35 -72 -82 -147.5t-92 -144.5q8 -15 20.5 -25t31.5 -10zM262 500q-28 0 -49.5 -16.5t-36.5 -43.5t-24.5 -62t-13.5 -72
t-3.5 -72.5t5.5 -64.5l161 313q-16 18 -39 18z" />
    <glyph glyph-name="FL00F9h" unicode="&#xd9;" horiz-adv-x="416" 
d="M100 81q-10 26 -18 71.5t-12 98t-3 106.5t9 97.5t24.5 71t42.5 27.5q16 -43 17 -85.5t1 -81.5q0 -42 -2 -82t-0.5 -80.5t8.5 -82.5t25 -88q38 0 58 8t30 25t12.5 43t6.5 62l15 332q1 30 37 30l19 -53l-11 -405q0 -33 -7.5 -53t-21.5 -30.5t-35 -14t-49 -3.5
q-23 0 -44.5 3t-40.5 12.5t-34.5 26.5t-26.5 45zM261 646q-8 1 -16.5 6t-16 10.5t-13.5 9.5t-10 4q-5 0 -4 1l-24 30q0 5 7 10.5t15.5 9t16 4t9.5 -2.5l21 -35z" />
    <glyph glyph-name="FL00DAh" unicode="&#xda;" horiz-adv-x="416" 
d="M100 81q-10 26 -18 71.5t-12 98t-3 106.5t9 97.5t24.5 71t42.5 27.5q16 -43 17 -85.5t1 -81.5q0 -42 -2 -82t-0.5 -80.5t8.5 -82.5t25 -88q38 0 58 8t30 25t12.5 43t6.5 62l15 332q1 30 37 30l19 -53l-11 -405q0 -33 -7.5 -53t-21.5 -30.5t-35 -14t-49 -3.5
q-23 0 -44.5 3t-40.5 12.5t-34.5 26.5t-26.5 45zM220 659l20 34q2 4 10 3t16.5 -4t15.5 -8.5t7 -10.5l-24 -30q1 -1 -4 -1q-4 0 -10 -4.5t-13.5 -9.5t-16 -10t-16.5 -6z" />
    <glyph glyph-name="FL00DBh" unicode="&#xdb;" horiz-adv-x="416" 
d="M100 81q-10 26 -18 71.5t-12 98t-3 106.5t9 97.5t24.5 71t42.5 27.5q16 -43 17 -85.5t1 -81.5q0 -42 -2 -82t-0.5 -80.5t8.5 -82.5t25 -88q38 0 58 8t30 25t12.5 43t6.5 62l15 332q1 30 37 30l19 -53l-11 -405q0 -33 -7.5 -53t-21.5 -30.5t-35 -14t-49 -3.5
q-23 0 -44.5 3t-40.5 12.5t-34.5 26.5t-26.5 45zM319 611l-88 45l-65 -53l-8 6t-10 11q0 6 -0.5 11t0.5 5q17 13 26.5 21.5t16.5 15t14.5 14t21.5 18.5q8 2 46 -26l71 -51z" />
    <glyph glyph-name="FL00DCh" unicode="&#xdc;" horiz-adv-x="416" 
d="M100 81q-10 26 -18.5 70t-13 94.5t-4 102t8 93t23.5 68t42 26.5q25 -66 27 -124.5t-1 -115.5t-0.5 -116t28.5 -126q38 0 58 8t30 25t12.5 43t6.5 62l15 332q1 30 37 30l19 -53l-11 -405q0 -33 -7.5 -53t-21.5 -30.5t-35 -14t-49 -3.5q-23 0 -44.5 3t-40.5 12.5
t-34.5 26.5t-26.5 45zM258 654l36 14q4 1 12.5 0t16.5 -3.5t14 -7t6 -8.5l-8 -41q1 -1 -4 -1q-8 0 -25 -1.5t-32 -4.5zM109 652l32 17q4 1 12 0.5t16 -3t14 -6.5t6 -9l-7 -40q1 -2 -4.5 -2.5t-14.5 -1t-20.5 -1.5t-21.5 -3z" />
    <glyph glyph-name="FL00DDh" unicode="&#xdd;" horiz-adv-x="422" 
d="M168 36l5 -12q4 -5 14.5 -13.5t17.5 -10.5q22 16 27 46.5t3 65t-5.5 68.5t2.5 58q13 42 32 80t39 75t39.5 74.5t33.5 79.5q-5 5 -15.5 13t-17.5 12l-5 1t-9 1q-3 0 -6.5 -1l-3.5 -1l-130 -191l-75 197h-7q-6 0 -14.5 -1.5t-11.5 -4.5q-10 -5 -13 -14.5t-1.5 -21.5t6 -26
t9.5 -28q11 -29 23.5 -52t16.5 -25q7 -23 11.5 -54.5t7 -67t4.5 -72.5t5 -70.5t7 -61t11 -43.5zM184 661l-15 -46q8 1 16.5 5.5t16 10t13.5 9.5t10 4q5 0 4 1l24 31q0 5 -7 10t-15.5 8t-16 4t-9.5 -2z" />
    <glyph glyph-name="FL00DEh" unicode="&#xde;" horiz-adv-x="382" 
d="M67 0h56v14l8 60q0 9 4 16q29 24 64 39.5t65.5 33.5t51 43.5t20.5 67.5q0 19 -4.5 41.5t-15.5 51.5q-9 24 -24.5 43t-35.5 30.5t-43 15.5t-47 -1l-39 -8l5 89v1q0 5 -11 11t-21 11l-4 1.5t-11 1.5q-3 0 -5.5 -1.5l-2.5 -1.5l-9 -359l-1 -162v-38zM232 408
q12 -31 20.5 -64t8.5 -63q0 -48 -25 -80.5t-86 -32.5q-8 17 -13 33.5t-8 33.5v115q13 26 37 42t66 16z" />
    <glyph glyph-name="FL00DFh" unicode="&#xdf;" horiz-adv-x="427" 
d="M67 -82h56l13 524q-4 25 0 39t24 14q17 0 37 -3.5t38 -10.5t32.5 -17.5t22.5 -25.5q9 -20 17.5 -38.5t6 -36.5t-19.5 -34t-59 -31q-6 -2 -4.5 -7.5t7.5 -12.5t16 -14.5t21 -13.5q30 0 36.5 -1.5t3.5 -5l-9 -10.5t-1 -19q12 -31 18 -58.5t3 -48.5t-17.5 -33t-45.5 -12
q-4 9 -5.5 7.5l-4.5 -4.5t-10 -3t-20 12l6 -80q44 0 77 6t52.5 24t22.5 52t-13 91l-9 20q-7 20 -15.5 39t-15.5 36q-8 22 -7 23q-2 16 6.5 34t18.5 37.5t15.5 40t-3.5 43.5q-10 24 -36 43.5t-57.5 32.5t-63.5 20t-54 7q-24 0 -37 -3.5t-20 -12t-9 -23t-3 -36.5q0 -3 1 -5z
" />
    <glyph glyph-name="FL00E0h" unicode="&#xe0;" horiz-adv-x="361" 
d="M74 91q-22 59 -13.5 112.5t39 94.5t79 65.5t106.5 24.5l30 -79l-9 -285q0 -15 -4.5 -17.5t-12.5 0.5t-18.5 8.5t-22.5 5.5q-2 0 -10 -3.5t-18 -7.5t-20.5 -7.5t-16.5 -3.5q-11 0 -21 0.5t-14 0.5q-32 22 -47.5 43t-26.5 48zM135 95q1 -2 6.5 -9t12 -14.5t13 -14.5
t10.5 -10l5 -1t9 -1q2 0 6 1l4 1q19 16 30 49t15.5 69.5t5.5 70t1 49.5q-2 3 -6.5 7t-9.5 7.5t-9.5 6.5t-7.5 3q-27 0 -47.5 -24.5t-32 -58.5t-13.5 -70.5t8 -60.5zM236 480q-8 1 -16.5 5.5t-16 10t-14 9.5t-10.5 4t-3 2l-24 30q0 5 6.5 10t15 8.5t16.5 4t10 -2.5l21 -34z
" />
    <glyph glyph-name="FL00E1h" unicode="&#xe1;" horiz-adv-x="361" 
d="M74 91q-22 59 -13.5 112.5t39 94.5t79 65.5t106.5 24.5l30 -79l-9 -285q0 -15 -4.5 -17.5t-12.5 0.5t-18.5 8.5t-22.5 5.5q-2 0 -10 -3.5t-18 -7.5t-20.5 -7.5t-16.5 -3.5q-11 0 -21 0.5t-14 0.5q-32 22 -47.5 43t-26.5 48zM135 95q1 -2 6.5 -9t12 -14.5t13 -14.5
t10.5 -10l5 -1t9 -1q2 0 6 1l4 1q19 16 30 49t15.5 69.5t5.5 70t1 49.5q-2 3 -6.5 7t-9.5 7.5t-9.5 6.5t-7.5 3q-27 0 -47.5 -24.5t-32 -58.5t-13.5 -70.5t8 -60.5zM194 529l21 35q2 3 10 2.5t16.5 -4t15 -8.5t6.5 -10l-24 -31q1 -1 -3 -1t-10.5 -4.5t-14 -9.5t-16 -9.5
t-16.5 -5.5z" />
    <glyph glyph-name="FL00E2h" unicode="&#xe2;" horiz-adv-x="361" 
d="M74 91q-22 59 -13.5 112.5t39 94.5t79 65.5t106.5 24.5l30 -79l-9 -285q0 -15 -4.5 -17.5t-12.5 0.5t-18.5 8.5t-22.5 5.5q-2 0 -10 -3.5t-18 -7.5t-20.5 -7.5t-16.5 -3.5q-11 0 -21 0.5t-14 0.5q-32 22 -47.5 43t-26.5 48zM135 95q1 -2 6.5 -9t12 -14.5t13 -14.5
t10.5 -10l5 -1t9 -1q2 0 6 1l4 1q19 16 30 49t15.5 69.5t5.5 70t1 49.5q-2 3 -6.5 7t-9.5 7.5t-9.5 6.5t-7.5 3q-27 0 -47.5 -24.5t-32 -58.5t-13.5 -70.5t8 -60.5zM289 476l-88 45l-66 -53l-8 6t-10 11q0 6 -0.5 11t0.5 5q18 13 27.5 21.5t16.5 15t14 13.5t21 19q5 2 17 -5
t29 -21l72 -51z" />
    <glyph glyph-name="FL00E3h" unicode="&#xe3;" horiz-adv-x="361" 
d="M135 95q-10 24 -8 60.5t13.5 70.5t32 58.5t47.5 24.5q3 0 7.5 -3t9.5 -6.5t9.5 -7.5t6.5 -7q0 -16 -1 -49.5t-5.5 -70t-15.5 -69.5t-30 -49l-4 -1t-6 -1q-4 0 -9 1l-5 1q-4 3 -10.5 10t-13 14.5t-12 14.5t-6.5 9zM74 91q11 -27 26.5 -48t47.5 -43q4 0 14 -0.5t21 -0.5
q6 0 16.5 3.5t20.5 7.5t18 7.5t10 3.5q12 0 22.5 -5.5t18.5 -8.5t12.5 -0.5t4.5 17.5l9 285l-30 79q-58 0 -106.5 -24.5t-79 -65.5t-39 -94.5t13.5 -112.5zM245 474q9 10 13.5 16.5t9.5 12.5t11.5 14t18.5 20q1 0 0.5 5t-0.5 10q-1 5 -7 10l-6 5l-46 -48l-46 30
q-23 21 -26 20q-10 -11 -15 -17.5t-10 -12.5t-11 -14t-18 -20q-1 0 -0.5 -4.5t0.5 -9.5q1 -5 6 -10.5l5 -5.5l45 48l48 -31v-1h2v-1q15 -18 26 -16z" />
    <glyph glyph-name="FL00E4h" unicode="&#xe4;" horiz-adv-x="361" 
d="M74 91q-22 59 -13.5 112.5t39 94.5t79 65.5t106.5 24.5l30 -79l-9 -285q0 -15 -4.5 -17.5t-12.5 0.5t-18.5 8.5t-22.5 5.5q-2 0 -10 -3.5t-18 -7.5t-20.5 -7.5t-16.5 -3.5q-11 0 -21 0.5t-14 0.5q-32 22 -47.5 43t-26.5 48zM135 95q1 -2 6.5 -9t12 -14.5t13 -14.5
t10.5 -10l5 -1t9 -1q2 0 6 1l4 1q19 16 30 49t15.5 69.5t5.5 70t1 49.5q-2 3 -6.5 7t-9.5 7.5t-9.5 6.5t-7.5 3q-27 0 -47.5 -24.5t-32 -58.5t-13.5 -70.5t8 -60.5zM228 541l37 13q4 1 11.5 0t15.5 -3.5t14 -7t6 -8.5l-7 -40q1 -2 -5 -2q-8 0 -24 -1.5t-32 -3.5zM86 529
l31 17q4 1 12.5 0.5t16.5 -3t14 -6.5t6 -9l-8 -40q1 -2 -4.5 -2.5t-14.5 -1t-20.5 -1.5t-21.5 -3z" />
    <glyph glyph-name="FL00E5h" unicode="&#xe5;" horiz-adv-x="361" 
d="M74 91q-22 59 -13.5 112.5t39 94.5t79 65.5t106.5 24.5l30 -79l-9 -285q0 -15 -4.5 -17.5t-12.5 0.5t-18.5 8.5t-22.5 5.5q-2 0 -10 -3.5t-18 -7.5t-20.5 -7.5t-16.5 -3.5q-11 0 -21 0.5t-14 0.5q-32 22 -47.5 43t-26.5 48zM135 95q1 -2 6.5 -9t12 -14.5t13 -14.5
t10.5 -10l5 -1t9 -1q2 0 6 1l4 1q19 16 30 49t15.5 69.5t5.5 70t1 49.5q-2 3 -6.5 7t-9.5 7.5t-9.5 6.5t-7.5 3q-27 0 -47.5 -24.5t-32 -58.5t-13.5 -70.5t8 -60.5zM178 546l32 18q4 1 12 0t16 -3.5t14 -6.5t6 -9l-8 -40q2 -2 -3.5 -2.5t-14.5 -1t-21 -1.5t-22 -3z" />
    <glyph glyph-name="FL00E6h" unicode="&#xe6;" horiz-adv-x="584" 
d="M83 91q-22 59 -13.5 112.5t39 94.5t79 65.5t106.5 24.5l30 -79l-1 -20q17 41 48 68t76 27q18 0 30.5 -6t21.5 -16.5t16 -25t13 -31.5q16 -41 6.5 -64t-31.5 -36t-50.5 -20.5t-51 -18.5t-33.5 -29.5t3 -53.5l5 -12q8 -7 19 -16.5t13 -7.5l77 48l34 -24q-3 -26 -8.5 -40.5
t-15 -22t-24.5 -9t-37 -1.5q-28 0 -45.5 3.5t-29.5 13t-20.5 26.5t-18.5 45l-4 8l-1 -70q0 -15 -4.5 -17.5t-12.5 0.5t-18 8.5t-22 5.5q-2 0 -10 -3.5t-18.5 -7.5t-21 -7.5t-16.5 -3.5q-11 0 -21 0.5t-13 0.5q-32 23 -48 43.5t-27 47.5zM144 95q1 -2 6.5 -9t12 -14.5
t13 -14.5t10.5 -10l5.5 -1t8.5 -1t6.5 1l3.5 1q19 16 30 49t15.5 69.5t5.5 70t1 49.5q-2 3 -6 7t-9.5 7.5t-10 6.5t-7.5 3q-27 0 -47.5 -24.5t-31.5 -58.5t-13 -70.5t7 -60.5zM475 324q-22 0 -37.5 -7t-26.5 -19t-17.5 -27.5t-9.5 -32.5q3 0 11.5 -1t12.5 -1q42 0 62.5 22.5
t4.5 65.5z" />
    <glyph glyph-name="FL00E7h" unicode="&#xe7;" horiz-adv-x="353" 
d="M245 -102l-41 -11q-4 -1 -16.5 1t-26 6t-24 9.5t-10.5 11.5l65 40l-6 43q-35 7 -61.5 29.5t-43.5 67.5q-16 40 -13.5 90t20 94.5t48.5 74.5t73 30q53 0 76 -60q-54 0 -86.5 -20.5t-46 -55t-9.5 -78.5t23 -92q21 0 37 3.5t31 7.5t30.5 7.5t35.5 3.5q8 -20 6.5 -38
t-10.5 -31.5t-24 -22t-34 -9.5z" />
    <glyph glyph-name="FL00E8h" unicode="&#xe8;" horiz-adv-x="347" 
d="M83 86q11 -28 19.5 -45t20.5 -26.5t29 -13t45 -3.5q22 0 37 1.5t24.5 9t15 22t8.5 40.5l-34 24l-75 -48q-4 -2 -15 7.5t-19 16.5l-4 12q-14 35 -3.5 53.5t33 29.5t51.5 18.5t51 20.5t31 36t-7 64q-12 34 -29 56.5t-52 22.5q-36 0 -63 -17.5t-44.5 -46t-26.5 -65t-9 -73.5
q0 -26 3.5 -50t12.5 -46zM238 324q16 -43 -3.5 -65.5t-61.5 -22.5q-5 0 -14 1t-12 1q7 35 28 60.5t63 25.5zM229 480l-15 47l-21 34q-2 3 -10 2.5t-16 -4t-14.5 -8.5t-6.5 -10l23 -30q-2 -2 5 -2q4 0 10 -4t13.5 -9.5t15.5 -10t16 -5.5z" />
    <glyph glyph-name="FL00E9h" unicode="&#xe9;" horiz-adv-x="347" 
d="M83 86q11 -28 19.5 -45t20.5 -26.5t29 -13t45 -3.5q22 0 37 1.5t24.5 9t15 22t8.5 40.5l-34 24l-75 -48q-4 -2 -15 7.5t-19 16.5l-4 12q-14 35 -3.5 53.5t33 29.5t51.5 18.5t51 20.5t31 36t-7 64q-12 34 -29 56.5t-52 22.5q-36 0 -63 -17.5t-44.5 -46t-26.5 -65t-9 -73.5
q0 -26 3.5 -50t12.5 -46zM238 324q16 -43 -3.5 -65.5t-61.5 -22.5q-5 0 -14 1t-12 1q7 35 28 60.5t63 25.5zM177 528l-15 -46q8 1 16.5 5.5t16 10t14 9.5t10.5 4t3 1l24 31q0 4 -6.5 9t-15 8.5t-16 4.5t-9.5 -3z" />
    <glyph glyph-name="FL00EAh" unicode="&#xea;" horiz-adv-x="347" 
d="M83 86q11 -28 19.5 -45t20.5 -26.5t29 -13t45 -3.5q22 0 37 1.5t24.5 9t15 22t8.5 40.5l-34 24l-75 -48q-4 -2 -15 7.5t-19 16.5l-4 12q-14 35 -3.5 53.5t33 29.5t51.5 18.5t51 20.5t31 36t-7 64q-12 34 -29 56.5t-52 22.5q-36 0 -63 -17.5t-44.5 -46t-26.5 -65t-9 -73.5
q0 -26 3.5 -50t12.5 -46zM238 324q16 -43 -3.5 -65.5t-61.5 -22.5q-5 0 -14 1t-12 1q7 35 28 60.5t63 25.5zM266 482l25 17l-71 50q-36 28 -46 26q-14 -11 -21.5 -18t-15 -13.5t-16.5 -15t-26 -22.5q-1 0 -0.5 -4.5t0.5 -10.5q2 -5 10 -11l8 -6l65 53z" />
    <glyph glyph-name="FL00EBh" unicode="&#xeb;" horiz-adv-x="347" 
d="M83 86q11 -28 19.5 -45t20.5 -26.5t29 -13t45 -3.5q22 0 37 1.5t24.5 9t15 22t8.5 40.5l-34 24l-75 -48q-4 -2 -15 7.5t-19 16.5l-4 12q-14 35 -3.5 53.5t33 29.5t51.5 18.5t51 20.5t31 36t-7 64q-12 34 -29 56.5t-52 22.5q-36 0 -63 -17.5t-44.5 -46t-26.5 -65t-9 -73.5
q0 -26 3.5 -50t12.5 -46zM238 324q16 -43 -3.5 -65.5t-61.5 -22.5q-5 0 -14 1t-12 1q7 35 28 60.5t63 25.5zM214 574l16 -53q17 2 33 4t25 2q4 0 3 1l8 39q0 5 -6 9.5t-14 7t-15.5 4t-11.5 0.5zM72 562l11 -49q11 2 22.5 3t21 1.5t14.5 1.5t3 2l8 40q0 5 -6 9t-14 6.5
t-15.5 3.5t-11.5 0z" />
    <glyph glyph-name="FL00ECh" unicode="&#xec;" 
d="M127 381l9 -23v-34q0 -23 -0.5 -56.5t-2 -69t-3 -69.5t-3.5 -58q-2 -20 -3.5 -39t-16.5 -32q-1 3 -4 9.5t-6 14t-6.5 14.5l-4.5 9q-2 5 -4 12.5l-4 15t-4.5 13t-3.5 7.5q-1 16 -1.5 36t-0.5 45q0 34 0.5 70.5t2 66.5t3.5 49t5 19h48zM52 550l24 15q2 1 8.5 0t13 -4
t11.5 -7t5 -10l29 -93q1 -2 -7 2.5t-20.5 12.5t-26 18t-22.5 20z" />
    <glyph glyph-name="FL00EDh" unicode="&#xed;" 
d="M127 381l9 -23v-34q0 -23 -0.5 -56.5t-2 -69t-3 -69.5t-3.5 -58q-2 -20 -3.5 -39t-16.5 -32q-1 3 -4 9.5t-6 14t-6.5 14.5l-4.5 9q-2 5 -4 12.5l-4 15t-4.5 13t-3.5 7.5q-1 16 -1.5 36t-0.5 45q0 34 0.5 70.5t2 66.5t3.5 49t5 19h48zM89 557l24 15q3 1 9 0t12.5 -4
t11.5 -7.5t5 -10.5l-19 -36q1 -1 -12.5 -10.5t-30 -18.5t-29.5 -13.5t-9 3.5z" />
    <glyph glyph-name="FL00EEh" unicode="&#xee;" 
d="M127 381l9 -23v-34q0 -23 -0.5 -56.5t-2 -69t-3 -69.5t-3.5 -58q-2 -20 -3.5 -39t-16.5 -32q-1 3 -4 9.5t-6 14t-6.5 14.5l-4.5 9q-2 5 -4 12.5l-4 15t-4.5 13t-3.5 7.5q-1 16 -1.5 36t-0.5 45q0 34 0.5 70.5t2 66.5t3.5 49t5 19h48zM182 476l-88 45l-66 -53l-8 6t-10 11
q0 6 -0.5 11t0.5 5q17 13 26.5 21.5t16.5 15t14.5 13.5t21.5 19q5 2 17 -5t29 -21l71 -51z" />
    <glyph glyph-name="FL00EFh" unicode="&#xef;" 
d="M127 381l9 -23v-34q0 -23 -0.5 -56.5t-2 -69t-3 -69.5t-3.5 -58q-2 -20 -3.5 -39t-16.5 -32q-1 3 -4 9.5t-6 14t-6.5 14.5l-4.5 9q-2 5 -4 12.5l-4 15t-4.5 13t-3.5 7.5q-1 16 -1.5 36t-0.5 45q0 34 0.5 70.5t2 66.5t3.5 49t5 19h48zM136 547l38 14q4 1 11.5 0t15.5 -4
t14 -7t6 -9l-8 -40q1 -1 -4 -1q-8 0 -24 -1.5t-33 -3.5zM-6 536l32 17q4 1 12 0.5t16 -3.5t14 -7t6 -8l-7 -40q1 -2 -4.5 -2.5t-14.5 -1.5t-20.5 -2t-21.5 -3z" />
    <glyph glyph-name="FL00F0h" unicode="&#xf0;" horiz-adv-x="459" 
d="M201 369q2 1 13.5 7.5t32.5 18t43 22.5q8 -20 15 -43.5t10 -49.5q-62 21 -107 18.5t-75 -21.5t-46 -50.5t-19.5 -67t4.5 -72.5t25.5 -66.5t43.5 -48t59 -18.5q30 0 65.5 12t63.5 36q3 3 8.5 15.5t11.5 26.5t11 26t7 16q17 43 22 85t1 82.5t-16.5 78.5t-30.5 71
q20 11 34 19.5t20 10.5q2 1 8.5 4t7.5 4l-9 43q-6 -7 -21 -17t-32 -19q-14 -6 -27 -14q-13 20 -26.5 37.5t-29.5 31.5q-2 0 -8.5 0.5t-14 1t-14 1t-9.5 0.5h-29q-23 0 -44 -10.5t-42 -39.5q57 20 97 4.5t66 -52.5q-8 -2 -14 -6t-14 -7q-25 -12 -41.5 -22t-17.5 -12zM159 262
q-11 19 3.5 25.5t41.5 4.5t60 -10t57 -17q2 -40 -4.5 -73t-17.5 -61q-24 -62 -80 -62q-33 0 -48.5 20.5t-19 50t0 63t7.5 59.5z" />
    <glyph glyph-name="FL00F1h" unicode="&#xf1;" horiz-adv-x="361" 
d="M76 24q5 -5 15 -13.5t17 -10.5l5 -1t9 -1q2 0 5 1t5 1q-1 15 -3 44t-2.5 63t2.5 70t12 65.5t26.5 49t46.5 20.5q1 0 4.5 -16.5t8 -36.5t8 -36.5t4.5 -16.5q-2 -20 -4.5 -54t-2.5 -67v-38q0 -2 2 -9.5t4.5 -16t5 -16.5t3.5 -11q26 0 40.5 17t21 44t5.5 61.5t-6 69.5
t-13 67t-16 54l-5 14q-3 9 -8 19.5t-11.5 19.5t-14.5 15t-17 6q-51 0 -82 -14.5t-47.5 -39.5t-22 -59.5t-5 -74t4.5 -83t5 -86.5zM220 486q9 10 14 17t9.5 13.5t11 14t18.5 19.5q1 0 0.5 5t-0.5 10q-2 5 -7 10.5l-5 5.5l-47 -50l-46 31q-10 10 -17.5 15.5t-9.5 4.5
q-9 -11 -14 -17.5t-10 -12.5t-11.5 -13.5t-18.5 -19.5q-1 0 -0.5 -5t0.5 -10q2 -5 7 -10.5l5 -5.5l45 49l48 -32v-1h1v-1q18 -18 27 -17z" />
    <glyph glyph-name="FL00F2h" unicode="&#xf2;" horiz-adv-x="362" 
d="M76 99q-15 38 -17.5 87t9.5 92.5t40 73t75 29.5q35 0 68 -24t48 -59q14 -39 15.5 -91t-12 -98.5t-42 -78.5t-73.5 -32q-74 0 -96 57zM228 321q-45 0 -69 -27t-31.5 -66.5t-1.5 -85t21 -82.5q42 0 64.5 27.5t30.5 67.5t3.5 85.5t-17.5 80.5zM219 480q-8 1 -16.5 5.5
t-16 10t-14 9.5t-10.5 4t-3 2l-24 30q0 5 6.5 10t15 8.5t16.5 4t10 -2.5l21 -34z" />
    <glyph glyph-name="FL00F3h" unicode="&#xf3;" horiz-adv-x="362" 
d="M76 99q-15 38 -17.5 87t9.5 92.5t40 73t75 29.5q35 0 68 -24t48 -59q14 -39 15.5 -91t-12 -98.5t-42 -78.5t-73.5 -32q-74 0 -96 57zM228 321q-45 0 -69 -27t-31.5 -66.5t-1.5 -85t21 -82.5q42 0 64.5 27.5t30.5 67.5t3.5 85.5t-17.5 80.5zM167 536l20 34q2 4 10 3
t16.5 -4t15.5 -8.5t7 -10.5l-24 -30q1 -1 -4 -1q-4 0 -10 -4.5t-13.5 -9.5t-16 -9.5t-16.5 -5.5z" />
    <glyph glyph-name="FL00F4h" unicode="&#xf4;" horiz-adv-x="362" 
d="M76 99q-15 38 -17.5 87t9.5 92.5t40 73t75 29.5q35 0 68 -24t48 -59q14 -39 15.5 -91t-12 -98.5t-42 -78.5t-73.5 -32q-74 0 -96 57zM228 321q-45 0 -69 -27t-31.5 -66.5t-1.5 -85t21 -82.5q42 0 64.5 27.5t30.5 67.5t3.5 85.5t-17.5 80.5zM263 476l-87 45l-67 -53
l-7.5 6t-8.5 11q0 6 -1 11t1 5q17 13 26.5 21.5t16 15t14 13.5t20.5 19q9 3 47 -26l72 -51z" />
    <glyph glyph-name="FL00F5h" unicode="&#xf5;" horiz-adv-x="362" 
d="M228 321q13 -35 17.5 -80.5t-3.5 -85.5t-30.5 -67.5t-64.5 -27.5q-15 37 -21 82.5t1.5 85t31.5 66.5t69 27zM91 55q22 -57 96 -57q45 0 73.5 32t42 78.5t12 98.5t-15.5 91q-15 35 -48 59t-68 24q-47 0 -75 -29.5t-40 -73t-9.5 -92.5t17.5 -87zM220 482q9 10 14 16.5
t9.5 12.5t11 14t18.5 20q1 0 0.5 4.5t-0.5 9.5q-2 5 -7 10.5l-5 5.5l-47 -48l-46 30q-10 10 -17.5 15.5t-9.5 3.5q-9 -10 -14 -16.5t-10 -12.5t-11.5 -14t-18.5 -20q-1 0 -0.5 -4.5t0.5 -9.5q2 -5 7 -10.5l5 -5.5l45 48l48 -31v-1h1v-2q18 -18 27 -15z" />
    <glyph glyph-name="FL00F6h" unicode="&#xf6;" horiz-adv-x="362" 
d="M76 99q-15 38 -17.5 87t9.5 92.5t40 73t75 29.5q35 0 68 -24t48 -59q14 -39 15.5 -91t-12 -98.5t-42 -78.5t-73.5 -32q-74 0 -96 57zM228 321q-45 0 -69 -27t-31.5 -66.5t-1.5 -85t21 -82.5q42 0 64.5 27.5t30.5 67.5t3.5 85.5t-17.5 80.5zM212 526l36 12q4 2 12 1
t16.5 -4t14.5 -7.5t6 -8.5l-8 -41q1 -1 -5 -1q-8 0 -24.5 -1t-31.5 -3zM70 513l32 17q4 2 12 1.5t16 -3t14 -7t6 -9.5l-9 -39q2 -2 -3 -3t-14.5 -1.5t-21 -1.5t-21.5 -2z" />
    <glyph glyph-name="FL00F7h" unicode="&#xf7;" horiz-adv-x="522" 
d="M52 192l16 -16q6 3 34 5t67.5 4t84.5 3.5t85 3t69 2.5t36 2q4 0 11.5 -1.5t9.5 -1.5l11 75q-8 -7 -26.5 -9.5t-38.5 -2.5h-53h-73h-76q-29 0 -54 -0.5t-44.5 -1.5t-31 -3t-12.5 -4zM227 114l15 -53q16 2 32.5 4t24.5 2q5 0 3 1l9 39q0 6 -6 10t-14 6.5t-16 3.5t-12 0z
M236 389l10 -49q10 2 22 3t21 1.5t14.5 1t3.5 1.5l8 41q0 4 -6 8.5t-14 7t-16 3.5t-12 -1z" />
    <glyph glyph-name="FL00F8h" unicode="&#xf8;" horiz-adv-x="362" 
d="M36 -77l55 131v1l-15 44q-15 38 -17.5 87t9.5 92.5t40 73t75 29.5q11 0 21 -2.5t21 -7.5l37 87q1 5 5 12.5t7 11.5q5 -4 13 -11.5t13 -12.5l2.5 -4.5t3.5 -7.5q2 -3 1.5 -6t0.5 -6q-3 -41 -26 -107q9 -13 17 -29q14 -39 15.5 -91t-12 -98.5t-42 -78.5t-73.5 -32
q-34 0 -54 10q-13 -23 -24 -44t-22 -41h-51zM161 61q31 7 55.5 35t39.5 64t19 72.5t-7 60.5q-21 -55 -49.5 -114t-57.5 -118zM202 319q-36 -7 -56 -24.5t-27.5 -42t-4 -54t12.5 -59.5z" />
    <glyph glyph-name="FL00FAh" unicode="&#xf9;" horiz-adv-x="346" 
d="M87 56q-7 20 -12 49t-7 62t-1 66.5t5.5 63t12.5 52t21 32.5q2 -5 8.5 -18t8.5 -18q14 -38 17 -73t4.5 -70.5t5 -71.5t19.5 -76q25 0 37.5 13t17 35t3.5 49.5t-3 56.5t-2.5 56.5t4.5 49.5t19 35t40 13q14 -34 14 -83q0 -35 -4 -73t-9 -72.5t-10.5 -63.5t-8.5 -46
q-15 -20 -31.5 -23t-43.5 -3q-14 0 -29.5 2.5t-29.5 9t-26.5 18t-19.5 28.5zM236 480q-8 1 -16.5 5.5t-16 10t-14 9.5t-10.5 4t-3 2l-24 30q0 5 6.5 10t15 8.5t16.5 4t10 -2.5l21 -34z" />
    <glyph glyph-name="FL00FCh" unicode="&#xfa;" horiz-adv-x="346" 
d="M87 56q-7 20 -12 49t-7 62t-1 66.5t5.5 63t12.5 52t21 32.5q2 -5 8.5 -18t8.5 -18q14 -38 17 -73t4.5 -70.5t5 -71.5t19.5 -76q25 0 37.5 13t17 35t3.5 49.5t-3 56.5t-2.5 56.5t4.5 49.5t19 35t40 13q14 -34 14 -83q0 -35 -4 -73t-9 -72.5t-10.5 -63.5t-8.5 -46
q-15 -20 -31.5 -23t-43.5 -3q-14 0 -29.5 2.5t-29.5 9t-26.5 18t-19.5 28.5zM169 529l22 35q2 3 9.5 2.5t16 -4t15 -8.5t6.5 -10l-24 -31q1 -1 -4 -1q-4 0 -10 -4.5t-13.5 -9.5t-15.5 -9.5t-16 -5.5z" />
    <glyph glyph-name="FL00FBh" unicode="&#xfb;" horiz-adv-x="346" 
d="M87 56q-7 20 -12 49t-7 62t-1 66.5t5.5 63t12.5 52t21 32.5q2 -5 8.5 -18t8.5 -18q14 -38 17 -73t4.5 -70.5t5 -71.5t19.5 -76q25 0 37.5 13t17 35t3.5 49.5t-3 56.5t-2.5 56.5t4.5 49.5t19 35t40 13q14 -34 14 -83q0 -35 -4 -73t-9 -72.5t-10.5 -63.5t-8.5 -46
q-15 -20 -31.5 -23t-43.5 -3q-14 0 -29.5 2.5t-29.5 9t-26.5 18t-19.5 28.5zM273 473l-88 45l-65 -53l-8 6t-10 11q0 6 -1 10.5t1 4.5q17 13 26.5 21.5t16 15l14 14t20.5 18.5q10 1 48 -27l71 -49z" />
    <glyph glyph-name="FL00FDh" unicode="&#xfc;" horiz-adv-x="346" 
d="M87 56q-7 20 -12 49t-7 62t-1 66.5t5.5 63t12.5 52t21 32.5q2 -5 8.5 -18t8.5 -18q14 -38 17 -73t4.5 -70.5t5 -71.5t19.5 -76q25 0 37.5 13t17 35t3.5 49.5t-3 56.5t-2.5 56.5t4.5 49.5t19 35t40 13q14 -34 14 -83q0 -35 -4 -73t-9 -72.5t-10.5 -63.5t-8.5 -46
q-15 -20 -31.5 -23t-43.5 -3q-14 0 -29.5 2.5t-29.5 9t-26.5 18t-19.5 28.5zM214 531l38 14q4 1 11.5 0t15.5 -3.5t14 -7t6 -8.5l-8 -41q1 -1 -3 -1q-9 0 -25 -1.5t-33 -4.5zM72 520l33 17q4 1 11.5 0.5t15.5 -3.5t14 -7t6 -8l-8 -41q2 -1 -3 -1.5t-14.5 -1.5t-21 -2
t-22.5 -3z" />
    <glyph glyph-name="FL00FEh" unicode="&#xfd;" horiz-adv-x="376" 
d="M91 352h-32l80 -334q5 -27 -5.5 -48t-28.5 -39t-40 -33.5t-39 -31t-25.5 -32t-0.5 -36.5q46 0 74.5 9.5t48 28t34.5 46.5t34 65q4 10 14.5 34.5t23.5 56t28.5 68t28.5 70t23.5 61.5t14.5 44q1 3 2 9.5t1.5 14t1 14t0.5 9.5h-47q-11 -25 -22.5 -53t-25 -56.5t-28.5 -55.5
t-32 -49zM194 529l-15 -46q8 1 16.5 5.5t16 10t14 9.5t10.5 4t3 1l24 31q0 5 -6.5 10t-15 8.5t-16.5 4t-10 -2.5z" />
    <glyph glyph-name="FL0100h" unicode="&#xfe;" horiz-adv-x="343" 
d="M67 -191l32 -23q24 16 32.5 32.5t7.5 31.5l-1 36q35 14 68.5 51t56.5 83.5t30.5 97t-8.5 92.5q-29 20 -57 27t-49.5 9.5t-35.5 4t-14 10.5l-6 59h-49zM214 202q16 -41 24.5 -78t3.5 -68.5t-27 -57t-68 -42.5q-1 5 -5 13t-7 16q-5 11 -9 18.5t-4 12.5q-4 34 -5 67
t7.5 59.5t29 43t60.5 16.5z" />
    <glyph glyph-name="FL00FFh" unicode="&#xff;" horiz-adv-x="376" 
d="M139 18q5 -27 -5.5 -48.5t-28.5 -39.5t-40 -33.5t-39 -30.5t-25.5 -31.5t-0.5 -36.5q46 0 74.5 9.5t48 28t34.5 46.5t34 65q4 10 14.5 34.5t23.5 56t28.5 68t28.5 70t23.5 61.5t14.5 44q1 3 2 9.5t1.5 14t1 14t0.5 9.5h-47q-11 -25 -22.5 -53t-25 -56.5t-28.5 -55.5
t-32 -49l-83 238h-32zM212 526l16 -53q15 2 31.5 3t24.5 1q6 0 5 1l8 41q0 4 -6 8.5t-14.5 7.5t-16.5 4t-12 -1zM70 513l11 -48q10 1 21.5 1.5t20.5 1.5t14.5 2t3.5 3l9 39q0 5 -6 9.5t-14 7t-16 3t-12 -1.5z" />
    </font>
</defs>
</svg>
