<?xml version="1.0" standalone="no"?>
<!DOCTYPE svg PUBLIC "-//W3C//DTD SVG 1.1//EN" "http://www.w3.org/Graphics/SVG/1.1/DTD/svg11.dtd" >
<svg>
<metadata>
Created by FontForge 20090914 at Mon Aug 15 14:11:37 2011
 By www-data
Copyright (c) Boutros International, 2004. All rights reserved.
</metadata>
<defs>
<font id="GESSTwoBold-Bold" horiz-adv-x="0" >
  <font-face 
    font-family="GE SS Two Bold"
    font-weight="700"
    font-stretch="normal"
    units-per-em="1000"
    panose-1="2 10 5 3 2 1 2 2 2 4"
    ascent="800"
    descent="-200"
    bbox="-114 -420 1379 980.998"
    underline-thickness="50"
    underline-position="-50"
    unicode-range="U+0020-U+FEFF"
  />
<missing-glyph horiz-adv-x="500" 
d="M63 0h375v750h-375v-750zM125 63v625h250v-625h-250z" />
    <glyph glyph-name="alefmaddaabovearabic" unicode="&#x627;&#x653;" horiz-adv-x="256" 
d="M210 0v645h-140v-645h140zM265 730l-19.001 54c-18.667 -22 -35.667 -33 -51 -33c-3.33301 0 -20.166 6.16699 -50.499 18.5s-49.5 18.5 -57.5 18.5c-23.333 0 -45.333 -14 -66 -42l20 -55c16 22 31.333 33 46 33c8 0 26.333 -6 55 -18s46.667 -18 54 -18
c22.667 0 45.667 14 69 42z" />
    <glyph glyph-name="alefhamzaabovearabic" unicode="&#x627;&#x654;" horiz-adv-x="263" 
d="M210 0v645h-140v-645h140zM228 700l-0.00195312 52.001h-78c-9.33301 3.33301 -14 12.666 -14 27.999c0 20 7.66699 30 23 30c10.667 0 18 -7 22 -21l45 21c-13.333 31.333 -35.666 47 -66.999 47c-21.333 0 -39.166 -7.66699 -53.499 -23s-21.5 -34.333 -21.5 -57
c0 -9.33301 1.33301 -18 4 -26h-39v-51h179z" />
    <glyph glyph-name="wawhamzaabovearabic" unicode="&#x648;&#x654;" horiz-adv-x="542" 
d="M509 20l-0.000976562 204.001c0 66 -21 121 -63 165s-95 66 -159 66c-66 0 -120 -21.167 -162 -63.5s-63 -97.5 -63 -165.5c0 -66.667 21.333 -122 64 -166s96.334 -66 161.001 -66c47.333 0 80.333 15.333 99 46c0 -28.667 -12 -51.334 -36 -68.001s-52 -25 -84 -25
v-112h14c152.667 0 229 61.667 229 185zM368.999 224.001c0 -30.667 -7.16602 -55 -21.499 -73s-33.833 -27 -58.5 -27c-26.667 0 -47.834 9.83301 -63.501 29.5s-23.5 44.167 -23.5 73.5s7.5 53.5 22.5 72.5s34.833 28.5 59.5 28.5s45 -9.66699 61 -29s24 -44.333 24 -75z
M400 510.001v63h-97c-11.333 5.33301 -17 17 -17 35c0 25.333 9.33301 38 28 38c14 0 23.667 -8.66699 29 -26l56 26c-17.333 39.333 -45.333 59 -84 59c-26.667 0 -49 -9.5 -67 -28.5s-27 -42.833 -27 -71.5c0 -9.33301 2 -20 6 -32h-49v-63h222z" />
    <glyph glyph-name="alefhamzabelowarabic" unicode="&#x627;&#x655;" horiz-adv-x="256" 
d="M210 0v645h-140v-645h140zM221 -199l-0.000976562 52h-79c-8.66699 2.66699 -13 12 -13 28c0 20 7.66699 30 23 30c10 0 17.667 -6.66699 23 -20l45 21c-13.333 31.333 -35.666 47 -66.999 47c-22 0 -40.333 -7.66699 -55 -23s-22 -34.333 -22 -57
c0 -6.66699 1.66699 -15.667 5 -27h-40v-51h180z" />
    <glyph glyph-name="yehhamzaabovearabic" unicode="&#x64a;&#x654;" horiz-adv-x="786" 
d="M293 355v74.999h-113c-13.333 5.33301 -20 19 -20 41c0 29.333 11 44 33 44c16 0 27 -10 33 -30l67 30c-20 45.333 -53 68 -99 68c-31.333 0 -57.5 -11 -78.5 -33s-31.5 -49.667 -31.5 -83c0 -11.333 2 -23.666 6 -36.999h-57v-75h260zM753 291.999l-232.001 0.000976562
c32.667 48 77.334 72 134.001 72h60v136h-60c-91.333 0 -165 -31.667 -221 -95c-55.333 -63.333 -83 -145 -83 -245h261c-2 -28.667 -7.66699 -54.334 -17 -77.001c-15.333 -36.667 -41 -65.667 -77 -87s-77.667 -32 -125 -32s-89 10.667 -125 32s-62 50.333 -78 87
c-12 30 -18 65 -18 105v107h-140v-120c0 -97.333 34.333 -178.333 103 -243c69.333 -65.333 154.333 -98 255 -98h6c100 0 184.667 32.667 254 98c68.667 64.667 103 145.667 103 243v117z" />
    <glyph glyph-name="shaddadammatanarabic" unicode="&#x64c;&#x651;" arabic-form="isolated" 
d="M222 927c0 15.333 -5.50195 28.165 -16.502 38.498s-23.833 15.5 -38.5 15.5c-14 0 -25.833 -5.16699 -35.5 -15.5s-14.5 -23.166 -14.5 -38.499c0 -20.667 7.66699 -37 23 -49c-14 -9.33301 -31.333 -15.333 -52 -18c8.66699 8.66699 13 20.334 13 35.001
c0 13.333 -3.83301 24.5 -11.5 33.5s-18.167 13.5 -31.5 13.5c-28 0 -44 -15.667 -48 -47c11.333 13.333 23 20 35 20c15.333 0 23 -7.66699 23 -23c0 -8.66699 -2.66699 -17.5 -8 -26.5s-11 -13.833 -17 -14.5c12.667 -18 19.334 -27 20.001 -27
c50.667 0 89.834 10.833 117.501 32.5s41.5 45.167 41.5 70.5zM262.998 742.999l-16.002 75.002l-40 -8l15 -67v-3l1 -2c0 -8.66699 -4.33301 -13 -13 -13c-14 1.33301 -22.333 9.66602 -25 24.999l-11 53l-41 -9l11 -53c1.33301 -4 2 -7 2 -9
c-4.66699 -16.667 -11.667 -25 -21 -25c-4.66699 0 -8 4.33301 -10 13l-15 67l-39 -8l16 -76c4.66699 -24 19.334 -36 44.001 -36c17.333 0 29.333 3 36 9s12 17.667 16 35c12.667 -18.667 26.334 -28 41.001 -28c16 0 28.5 4 37.5 12s13.5 17.667 13.5 29
c0 3.33301 -0.666992 9.66602 -2 18.999zM171.996 948.001c12.667 0 19 -6 19 -18c0 -12.667 -8.33301 -24 -25 -34c-12 9.33301 -18 19.333 -18 30c0 6 2.5 11.167 7.5 15.5s10.5 6.5 16.5 6.5z" />
    <glyph glyph-name="shaddakasratanarabic" unicode="&#x64d;&#x651;" arabic-form="isolated" 
d="M242 894l-16.999 75l-39 -9l16 -73c0 -7.33301 -3.66699 -11 -11 -11c-13.333 0 -22 8 -26 24l-12 53l-41 -9l12 -52c0.666992 -2 1 -5 1 -9c-4 -16.667 -10.667 -25 -20 -25c-5.33301 0 -9 4.33301 -11 13l-15 67l-39 -8l16 -76c5.33301 -25.333 20 -38 44 -38
c16.667 0 28.667 3.16699 36 9.5s12.666 18.166 15.999 35.499c13.333 -18 27 -27 41 -27c16 0 28.5 3.83301 37.5 11.5s13.5 17.167 13.5 28.5c0 2.66699 -0.666992 9.33398 -2 20.001zM275.001 822l-159 -37.999c-24 -8 -38.667 -22.667 -44 -44
c12.667 2.66699 29 5.83398 49 9.50098l45.5 8.5c10.333 2 22.5 4.66699 36.5 8s24.5 6.66602 31.5 9.99902s14.167 7.16602 21.5 11.499s12.333 9.33301 15 15s4 12.167 4 19.5zM265.001 753.001l-160 -37c-24 -8 -38.333 -23 -43 -45c14 3.33301 30.833 6.83301 50.5 10.5
l45.5 8.5c10.667 2 22.667 4.66699 36 8s23.5 6.5 30.5 9.5s14 6.66699 21 11s12 9.33301 15 15s4.5 12.167 4.5 19.5z" />
    <glyph glyph-name="shaddafathaarabic" unicode="&#x64e;&#x651;" arabic-form="isolated" 
d="M226 898l-160 -37c-24.667 -8 -39.334 -23 -44.001 -45c14.667 3.33301 31.667 6.83301 51 10.5l45 8.5c10.667 2 22.834 4.66699 36.501 8s24 6.5 31 9.5s14 6.66699 21 11s12 9.33301 15 15s4.5 12.167 4.5 19.5zM238 749l-15.002 74.998l-41 -8l15 -67
c0.666992 -1.33301 1 -3.66602 1 -6.99902c0 -6.66699 -3.66699 -10 -11 -10c-14 0 -22.667 8 -26 24l-11 54l-41 -9l12 -53v-10l-2 -6c-1.33301 -3.33301 -3.5 -7.16602 -6.5 -11.499s-6.5 -6.5 -10.5 -6.5c-5.33301 0 -9 4 -11 12l-15 68l-39 -8l15 -77
c6 -24 21 -36 45 -36c16.667 0 28.5 3.16699 35.5 9.5s12.5 17.833 16.5 34.5c12.667 -18 26.334 -27 41.001 -27c16.667 0 29.334 3.83301 38.001 11.5s13 17.5 13 29.5c0 4.66699 -1 10.667 -3 18z" />
    <glyph glyph-name="shaddadammaarabicX" unicode="&#x64f;&#x651;" arabic-form="isolated" 
d="M198 925c0 15.333 -5.50098 28.335 -16.501 39.002s-23.5 16 -37.5 16s-26.167 -5.16699 -36.5 -15.5s-15.5 -23.5 -15.5 -39.5c0 -20 8 -36 24 -48c-17.333 -14.667 -50.666 -22.334 -99.999 -23.001c14 -21.333 21.333 -32 22 -32
c47.333 3.33301 85.833 14.166 115.5 32.499s44.5 41.833 44.5 70.5zM237.999 744.002l-15.002 74.999l-41 -8l15 -67c0.666992 -1.33301 1 -3.66602 1 -6.99902c0 -6.66699 -3.66699 -10 -11 -10c-14 0 -22.667 8 -26 24l-11 54l-41 -9l12 -53v-10l-2 -5
c-1.33301 -4 -3.5 -8.16699 -6.5 -12.5s-6.5 -6.5 -10.5 -6.5c-5.33301 0 -9 4 -11 12l-15 68l-39 -8l16 -77c4.66699 -24 19.667 -36 45 -36c16.667 0 28.5 3.16699 35.5 9.5s12.167 17.833 15.5 34.5c12.667 -18 26.334 -27 41.001 -27
c16.667 0 29.334 3.83301 38.001 11.5s13 17.5 13 29.5c0 5.33301 -1 11.333 -3 18zM147.997 947.001c12.667 0 19 -6.33398 19 -19.001c0 -11.333 -8.66699 -22.666 -26 -33.999c-12 10.667 -18 21 -18 31c0 6 2.66699 11.167 8 15.5s11 6.5 17 6.5z" />
    <glyph glyph-name="shaddakasraarabic" unicode="&#x650;&#x651;" arabic-form="isolated" 
d="M220 817l-16 76.999l-40 -10l14 -67c0.666992 -1.33301 1 -3.66602 1 -6.99902c0 -6.66699 -3.33301 -10 -10 -10c-13.333 0 -22 8.33301 -26 25l-11 53l-41 -9l11 -53c0.666992 -2 1 -5 1 -9l-1 -2c0 -1.33301 -0.5 -3.33301 -1.5 -6s-2.16699 -5.16699 -3.5 -7.5
s-3.16602 -4.33301 -5.49902 -6s-4.83301 -2.5 -7.5 -2.5c-5.33301 0 -9 4 -11 12l-15 67l-40 -8l16 -75c5.33301 -25.333 20 -38 44 -38c17.333 0 29.5 3.16699 36.5 9.5s12.5 17.833 16.5 34.5c13.333 -18 26.666 -27 39.999 -27c16.667 0 29.5 3.83301 38.5 11.5
s13.5 17.5 13.5 29.5c0 4.66699 -1 10.667 -3 18zM249 748.999l-159 -36.999c-24.667 -8 -39.334 -23 -44.001 -45l49 9.5c19.333 3.66699 34.333 6.66699 45 9s22.834 5.16602 36.501 8.49902s24.167 6.5 31.5 9.5s14.5 6.66699 21.5 11s12 9.33301 15 15
s4.5 12.167 4.5 19.5z" />
    <glyph glyph-name="alefwithfathatanfinal" unicode="&#xfe8e;&#x64b;" horiz-adv-x="360" arabic-form="final" 
d="M261 834l-159.999 -38c-24 -8 -38.667 -22.667 -44 -44c14.667 3.33301 31.5 6.83301 50.5 10.5l45 8.5c11 2 23.167 4.66699 36.5 8s23.666 6.5 30.999 9.5s14.5 6.66699 21.5 11s12 9.33301 15 15s4.5 12.167 4.5 19.5zM250.001 765l-158.999 -37
c-24.667 -8 -39.334 -23 -44.001 -45c14.667 3.33301 31.667 6.83301 51 10.5s34.5 6.66699 45.5 9l36.5 8c13.333 3 23.666 6 30.999 9s14.333 6.66699 21 11s11.334 9.33301 14.001 15s4 12.167 4 19.5zM371.002 0l0.000976562 134h-41c-48.667 0 -80.834 8 -96.501 24
s-23.5 42.667 -23.5 80v407h-140v-480c0 -52 14.833 -92.5 44.5 -121.5s71.167 -43.5 124.5 -43.5h132z" />
    <glyph glyph-name="alefwithfathatanisolated" unicode="&#x627;&#x64b;" horiz-adv-x="256" arabic-form="isolated" 
d="M210 0v645h-140v-645h140zM261 834l-159.999 -38c-24 -8 -38.667 -22.667 -44 -44c14.667 3.33301 31.5 6.83301 50.5 10.5l45 8.5c11 2 23.167 4.66699 36.5 8s23.666 6.5 30.999 9.5s14.5 6.66699 21.5 11s12 9.33301 15 15s4.5 12.167 4.5 19.5zM250.001 765
l-158.999 -37c-24.667 -8 -39.334 -23 -44.001 -45c14.667 3.33301 31.667 6.83301 51 10.5s34.5 6.66699 45.5 9l36.5 8c13.333 3 23.666 6 30.999 9s14.333 6.66699 21 11s11.334 9.33301 14.001 15s4 12.167 4 19.5z" />
    <glyph glyph-name="allahisolated" unicode="&#xfedf;&#xfee0;&#xfeea;" horiz-adv-x="1193" arabic-form="isolated" 
d="M863 797h-41v-69c0 -10.667 -3.33301 -16 -10 -16c-16 0 -24 10 -24 30v55h-41v-55c0 -19.333 -7.66699 -29 -23 -29c-7.33301 0 -11 5 -11 15v69h-41v-78c0 -30.667 16.333 -46 49 -46c14 0 23.833 2 29.5 6s11.5 13.333 17.5 28c10.667 -24.667 26 -37 46 -37
c32.667 0 49 16.333 49 49v78zM1161 193v451.001h-140v-412c0 -65.333 -22.667 -98 -68 -98h-128c11.333 32 17 65.667 17 101v409h-141v-414c0 -64 -23.667 -96 -71 -96s-79.833 9 -97.5 27s-26.5 43 -26.5 75v315c-178 0 -267 -0.333008 -267 -1
c-65.333 0 -116.166 -22 -152.499 -66s-54.5 -103.667 -54.5 -179c0 -70 18 -127.833 54 -173.5s83.667 -68.5 143 -68.5c69.333 0 116.666 20 141.999 60c32 -81.333 88 -122 168 -122h450c52 0 93.667 18.167 125 54.5s47 82.166 47 137.499zM362 316.001
c0 -41.333 -8.50098 -74.499 -25.501 -99.499s-40.167 -37.5 -69.5 -37.5c-27.333 0 -50.166 12.5 -68.499 37.5s-27.5 55.167 -27.5 90.5c0 39.333 9.5 72.666 28.5 99.999s42.5 41 70.5 41h92v-132z" />
    <glyph glyph-name="lamalefmaddaaboveisolatedarabi" unicode="&#xfedf;&#xfe82;" horiz-adv-x="606" arabic-form="isolated" 
d="M574 164v479.999h-138v-408c0 -66.667 -23.667 -100.667 -71 -102l-124 443h-148l126 -443h-149v-134h332c49.333 0 90.333 15 123 45c32.667 30.667 49 70.334 49 119.001zM282 671.999l-18.999 54c-19.333 -22 -36.333 -33 -51 -33c-8 0 -24.667 6 -50 18
c-24.667 12.667 -44 19 -58 19c-22.667 0 -44.667 -14 -66 -42l20 -55c16 22 31.333 33 46 33c13.333 0 31.666 -6 54.999 -18s41.333 -18 54 -18c23.333 0 46.333 14 69 42z" />
    <glyph glyph-name="lamalefmaddaabovefinalarabic" unicode="&#xfee0;&#xfe82;" horiz-adv-x="720" arabic-form="final" 
d="M750 0v134h-178c10.667 30 16 63.667 16 101v409h-139v-414c0 -26.667 -2 -44 -6 -52c-11.333 -29.333 -33 -44 -65 -44h-13l-123 443h-148l126 -443h-150v-134h680zM282 672l-18.999 54c-19.333 -22 -36.333 -33 -51 -33c-8 0 -24.667 6 -50 18
c-24.667 12.667 -44 19 -58 19c-22.667 0 -44.667 -14 -66 -42l20 -55c16 22 31.333 33 46 33c13.333 0 31.666 -6 54.999 -18s41.333 -18 54 -18c23.333 0 46.333 14 69 42z" />
    <glyph glyph-name="lamalefhamzaaboveisolatedarabi" unicode="&#xfedf;&#xfe84;" horiz-adv-x="607" arabic-form="isolated" 
d="M575 164v479.999h-138v-408c0 -66.667 -23.667 -100.667 -71 -102l-124 443h-148l126 -443h-149v-134h332c48.667 0 89.667 15 123 45c32.667 30.667 49 70.334 49 119.001zM249 635.999l-0.00195312 52.001h-78c-9.33301 3.33301 -14 12.666 -14 27.999
c0 20 7.66699 30 23 30c10.667 0 18 -7 22 -21l45 21c-13.333 31.333 -35.666 47 -66.999 47c-21.333 0 -39.166 -7.66699 -53.499 -23s-21.5 -34.333 -21.5 -57c0 -9.33301 1.33301 -18 4 -26h-39v-51h179z" />
    <glyph glyph-name="lamalefhamzaabovefinalarabicX" unicode="&#xfee0;&#xfe84;" horiz-adv-x="721" arabic-form="final" 
d="M751 0v134h-178c10.667 30 16 63.667 16 101v409h-139v-414c0 -26.667 -2 -44 -6 -52c-11.333 -29.333 -33 -44 -65 -44h-13l-123 443h-148l126 -443h-150v-134h680zM249 636l-0.00195312 52.001h-78c-9.33301 3.33301 -14 12.666 -14 27.999c0 20 7.66699 30 23 30
c10.667 0 18 -7 22 -21l45 21c-13.333 31.333 -35.666 47 -66.999 47c-21.333 0 -39.166 -7.66699 -53.499 -23s-21.5 -34.333 -21.5 -57c0 -9.33301 1.33301 -18 4 -26h-39v-51h179z" />
    <glyph glyph-name="lamalefhamzabelowisolatedarabi" unicode="&#xfedf;&#xfe88;" horiz-adv-x="606" arabic-form="isolated" 
d="M574 164v479.999h-138v-408c0 -66.667 -23.667 -100.667 -71 -102l-124 443h-148l126 -443h-149v-134h332c49.333 0 90.333 15 123 45c32.667 30.667 49 70.334 49 119.001zM262 -199.001l-0.000976562 52h-79c-8.66699 2.66699 -13 12 -13 28c0 20 7.66699 30 23 30
c10 0 17.667 -6.66699 23 -20l45 21c-13.333 31.333 -35.666 47 -66.999 47c-22 0 -40.333 -7.66699 -55 -23s-22 -34.333 -22 -57c0 -6.66699 1.66699 -15.667 5 -27h-40v-51h180z" />
    <glyph glyph-name="lamalefhamzabelowfinalarabicX" unicode="&#xfee0;&#xfe88;" horiz-adv-x="720" arabic-form="final" 
d="M750 0v134h-178c10.667 30 16 63.667 16 101v409h-139v-414c0 -26.667 -2 -44 -6 -52c-11.333 -29.333 -33 -44 -65 -44h-13l-123 443h-148l126 -443h-150v-134h680zM262 -199l-0.000976562 52h-79c-8.66699 2.66699 -13 12 -13 28c0 20 7.66699 30 23 30
c10 0 17.667 -6.66699 23 -20l45 21c-13.333 31.333 -35.666 47 -66.999 47c-22 0 -40.333 -7.66699 -55 -23s-22 -34.333 -22 -57c0 -6.66699 1.66699 -15.667 5 -27h-40v-51h180z" />
    <glyph glyph-name="lamalefisolatedarabic" unicode="&#xfedf;&#xfe8e;" horiz-adv-x="606" arabic-form="isolated" 
d="M574 164v479.999h-138v-408c0 -66.667 -23.667 -100.667 -71 -102l-124 443h-148l126 -443h-149v-134h332c49.333 0 90.333 15 123 45c32.667 30.667 49 70.334 49 119.001z" />
    <glyph glyph-name="lamaleffinalarabic" unicode="&#xfee0;&#xfe8e;" horiz-adv-x="720" arabic-form="final" 
d="M750 0v134h-178c10.667 30 16 63.667 16 101v409h-139v-414c0 -26.667 -2 -44 -6 -52c-11.333 -29.333 -33 -44 -65 -44h-13l-123 443h-148l126 -443h-150v-134h680z" />
    <glyph glyph-name="hamzaarabic" unicode="&#x621;" horiz-adv-x="559" arabic-form="isolated" 
d="M521 0v133.999h-204c-20.667 12 -31 36.333 -31 73c0 22.667 5 40.834 15 54.501s24.667 20.5 44 20.5c26.667 0 46 -17.667 58 -53l116 54c-34.667 80.667 -92.334 121 -173.001 121c-55.333 0 -101.666 -19.167 -138.999 -57.5s-56 -86.833 -56 -145.5
c0 -20.667 3.66699 -43 11 -67h-100v-134h459z" />
    <glyph glyph-name="alefarabic" unicode="&#x627;" horiz-adv-x="256" arabic-form="isolated" 
d="M210 0v645h-140v-645h140z" />
    <glyph glyph-name="beharabic" unicode="&#x628;" horiz-adv-x="926" arabic-form="isolated" 
d="M894 165l0.000976562 288.001h-138v-217c0 -47.333 -16.667 -78 -50 -92c-14 -6.66699 -41.333 -10 -82 -10h-258c-64.667 0 -111.334 8.33301 -140.001 25c-37.333 21.333 -56 61.666 -56 120.999v174h-138v-174c0 -186.667 110.333 -280 331 -280h362
c54 0 95.667 14.5 125 43.5s44 69.5 44 121.5zM538.001 -165.999v116h-124v-116h124z" />
    <glyph glyph-name="tehmarbutaarabic" unicode="&#x629;" horiz-adv-x="551" arabic-form="isolated" 
d="M429 558v115h-124v-115h124zM240 558v115h-124v-115h124zM518 241c0 74.667 -22.665 132.998 -67.998 174.998c-44.667 42.667 -104.334 64 -179.001 64c-72.667 0 -130.667 -21.667 -174 -65s-65 -101.666 -65 -174.999s22 -131.666 66 -174.999
c45.333 -43.333 104.666 -65 177.999 -65s132 22 176 66s66 102.333 66 175zM384.002 235.998c0 -37.333 -9.00098 -67.666 -27.001 -90.999c-19.333 -25.333 -47.666 -38 -84.999 -38c-36 0 -63.333 12.667 -82 38c-18 23.333 -27 53.666 -27 90.999
c0 92 36.333 138 109 138c74.667 0 112 -46 112 -138z" />
    <glyph glyph-name="teharabic" unicode="&#x62a;" horiz-adv-x="926" arabic-form="isolated" 
d="M627 453v116h-125v-116h125zM438 453v116h-125v-116h125zM894 165l0.000976562 288.001h-138v-217c0 -47.333 -16.667 -78 -50 -92c-14 -6.66699 -41.333 -10 -82 -10h-258c-64.667 0 -111.334 8.33301 -140.001 25c-37.333 21.333 -56 61.666 -56 120.999v174h-138v-174
c0 -186.667 110.333 -280 331 -280h362c54 0 95.667 14.5 125 43.5s44 69.5 44 121.5z" />
    <glyph glyph-name="theharabic" unicode="&#x62b;" horiz-adv-x="926" arabic-form="isolated" 
d="M535 614v116h-125v-116h125zM630 454v115h-125v-115h125zM441 454v115h-125v-115h125zM894 165l0.000976562 288.001h-138v-217c0 -47.333 -16.667 -78 -50 -92c-14 -6.66699 -41.333 -10 -82 -10h-258c-64.667 0 -111.334 8.33301 -140.001 25
c-37.333 21.333 -56 61.666 -56 120.999v174h-138v-174c0 -186.667 110.333 -280 331 -280h362c54 0 95.667 14.5 125 43.5s44 69.5 44 121.5z" />
    <glyph glyph-name="jeemarabic" unicode="&#x62c;" horiz-adv-x="561" arabic-form="isolated" 
d="M389 30v116h-124v-116h124zM525 199c2.66699 19.333 4.00195 40.335 4.00195 63.002c0 97.333 -27 176.166 -81 236.499s-127 90.5 -219 90.5c-24.667 0 -46.667 -1.66699 -66 -5v-124c18.667 7.33301 39 11 61 11c89.333 0 143 -44.333 161 -133
c-72.667 0 -121.334 -2 -146.001 -6c-64.667 -10.667 -115.334 -38 -152.001 -82s-55 -98.667 -55 -164c0 -78.667 25.167 -140.334 75.5 -185.001s123.5 -67 219.5 -67h93v139h-103c-96.667 0 -145 37.667 -145 113c0 40 11.667 68.833 35 86.5s61 26.5 113 26.5h205z" />
    <glyph glyph-name="haharabic" unicode="&#x62d;" horiz-adv-x="561" arabic-form="isolated" 
d="M525 199c2.66699 19.333 4.00195 40.335 4.00195 63.002c0 97.333 -27 176.166 -81 236.499s-127 90.5 -219 90.5c-24.667 0 -46.667 -1.66699 -66 -5v-124c18.667 7.33301 39 11 61 11c89.333 0 143 -44.333 161 -133c-72.667 0 -121.334 -2 -146.001 -6
c-64.667 -10.667 -115.334 -38 -152.001 -82s-55 -98.667 -55 -164c0 -78.667 25.167 -140.334 75.5 -185.001s123.5 -67 219.5 -67h93v139h-103c-96.667 0 -145 37.667 -145 113c0 40 11.667 68.833 35 86.5s61 26.5 113 26.5h205z" />
    <glyph glyph-name="khaharabic" unicode="&#x62e;" horiz-adv-x="561" arabic-form="isolated" 
d="M385 645v115h-125v-115h125zM525 199c2.66699 19.333 4.00195 40.335 4.00195 63.002c0 97.333 -27 176.166 -81 236.499s-127 90.5 -219 90.5c-24.667 0 -46.667 -1.66699 -66 -5v-124c18.667 7.33301 39 11 61 11c89.333 0 143 -44.333 161 -133
c-72.667 0 -121.334 -2 -146.001 -6c-64.667 -10.667 -115.334 -38 -152.001 -82s-55 -98.667 -55 -164c0 -78.667 25.167 -140.334 75.5 -185.001s123.5 -67 219.5 -67h93v139h-103c-96.667 0 -145 37.667 -145 113c0 40 11.667 68.833 35 86.5s61 26.5 113 26.5h205z" />
    <glyph glyph-name="dalarabic" unicode="&#x62f;" horiz-adv-x="597" arabic-form="isolated" 
d="M565 0v134.999c0 150.667 -69 250.334 -207 299.001c-36 12.667 -98.333 19 -187 19v-117c88.667 0 153.167 -16.167 193.5 -48.5s60.5 -83.5 60.5 -153.5h-363v-134h503z" />
    <glyph glyph-name="thalarabic" unicode="&#x630;" horiz-adv-x="597" arabic-form="isolated" 
d="M358 529v115h-125v-115h125zM565 0v134.999c0 150.667 -69 250.334 -207 299.001c-36 12.667 -98.333 19 -187 19v-117c88.667 0 153.167 -16.167 193.5 -48.5s60.5 -83.5 60.5 -153.5h-363v-134h503z" />
    <glyph glyph-name="reharabic" unicode="&#x631;" horiz-adv-x="362" arabic-form="isolated" 
d="M330 92l-0.000976562 361h-141v-373c0 -88 -46 -132 -138 -132v-113c96.667 0 166.334 19.333 209.001 58c46.667 40.667 70 107 70 199z" />
    <glyph glyph-name="zainarabic" unicode="&#x632;" horiz-adv-x="362" arabic-form="isolated" 
d="M320 529v115h-124v-115h124zM330 92l-0.000976562 361h-141v-373c0 -88 -46 -132 -138 -132v-113c96.667 0 166.334 19.333 209.001 58c46.667 40.667 70 107 70 199z" />
    <glyph glyph-name="seenarabic" unicode="&#x633;" horiz-adv-x="1270" arabic-form="isolated" 
d="M1233 236v217h-141v-229c0 -60 -23.667 -90 -71 -90h-89c11.333 30.667 17 64.334 17 101.001v218h-140v-229c0 -60 -23.667 -90 -71 -90h-74c1.33301 17.333 2 30.666 2 39.999v280h-141v-267c0 -66.667 -15.833 -120.5 -47.5 -161.5s-74.167 -61.5 -127.5 -61.5
c-54 0 -96.833 20.667 -128.5 62s-47.5 95 -47.5 161v267h-140v-280c0 -96 30.667 -176.667 92 -242s136 -98 224 -98c117.333 0 208.666 55.333 273.999 166h402c58.667 -0 107.834 22.333 147.501 67s59.5 101 59.5 169z" />
    <glyph glyph-name="sheenarabic" unicode="&#x634;" horiz-adv-x="1270" arabic-form="isolated" 
d="M844 529v115h-125v-115h125zM936 694v115h-124v-115h124zM1032 529v115h-124v-115h124zM1233 236v217h-141v-229c0 -60 -23.667 -90 -71 -90h-89c11.333 30.667 17 64.334 17 101.001v218h-140v-229c0 -60 -23.667 -90 -71 -90h-74c1.33301 17.333 2 30.666 2 39.999v280
h-141v-267c0 -66.667 -15.833 -120.5 -47.5 -161.5s-74.167 -61.5 -127.5 -61.5c-54 0 -96.833 20.667 -128.5 62s-47.5 95 -47.5 161v267h-140v-280c0 -96 30.667 -176.667 92 -242s136 -98 224 -98c117.333 0 208.666 55.333 273.999 166h402
c58.667 -0 107.834 22.333 147.501 67s59.5 101 59.5 169z" />
    <glyph glyph-name="sadarabic" unicode="&#x635;" horiz-adv-x="1303" arabic-form="isolated" 
d="M1257 0c3.33301 34.667 5.00098 65.333 5.00098 92c0 114 -23.667 203 -71 267s-115.333 96 -204 96c-56.667 0 -113.167 -16.5 -169.5 -49.5s-106.833 -78.833 -151.5 -137.5v186h-141v-267c0 -66.667 -15.833 -120.5 -47.5 -161.5s-74.167 -61.5 -127.5 -61.5
c-54 0 -96.833 20.667 -128.5 62s-47.5 95 -47.5 161v267h-140v-280c0 -96 30.667 -176.667 92 -242s136 -98 224 -98c117.333 0 208.666 55.333 273.999 166h633zM1115 133.999h-410c77.333 132.667 168 199 272 199c42.667 0 76.5 -17 101.5 -51s37.5 -77.333 37.5 -130z
" />
    <glyph glyph-name="dadarabic" unicode="&#x636;" horiz-adv-x="1303" arabic-form="isolated" 
d="M1257 0c3.33301 34.667 5.00098 65.333 5.00098 92c0 114 -23.667 203 -71 267s-115.333 96 -204 96c-56.667 0 -113.167 -16.5 -169.5 -49.5s-106.833 -78.833 -151.5 -137.5v186h-141v-267c0 -66.667 -15.833 -120.5 -47.5 -161.5s-74.167 -61.5 -127.5 -61.5
c-54 0 -96.833 20.667 -128.5 62s-47.5 95 -47.5 161v267h-140v-280c0 -96 30.667 -176.667 92 -242s136 -98 224 -98c117.333 0 208.666 55.333 273.999 166h633zM1115 133.999h-410c77.333 132.667 168 199 272 199c42.667 0 76.5 -17 101.5 -51s37.5 -77.333 37.5 -130z
M1026 528.999v115h-125v-115h125z" />
    <glyph glyph-name="taharabic" unicode="&#x637;" horiz-adv-x="844" arabic-form="isolated" 
d="M806 0c3.33301 34.667 5 65.333 5 92c0 114 -23.667 203 -71 267s-115.333 96 -204 96c-98 0 -191 -46 -279 -138l13 327h-139v-510h-99v-134h774zM664 133.999l-410 0.000976562c77.333 132.667 168 199 272 199c42.667 0 76.5 -16.667 101.5 -50
s37.5 -76.333 37.5 -129c0 -8.66699 -0.333008 -15.334 -1 -20.001z" />
    <glyph glyph-name="zaharabic" unicode="&#x638;" horiz-adv-x="844" arabic-form="isolated" 
d="M575 529v115h-125v-115h125zM806 0c3.33301 34.667 5 65.333 5 92c0 114 -23.667 203 -71 267s-115.333 96 -204 96c-98 0 -191 -46 -279 -138l13 327h-139v-510h-99v-134h774zM575 528.999h-125v115h125v-115zM664 133.999l-410 0.000976562
c77.333 132.667 168 199 272 199c42.667 0 76.5 -16.667 101.5 -50s37.5 -76.333 37.5 -129c0 -8.66699 -0.333008 -15.334 -1 -20.001zM575 529v115h-125v-115h125z" />
    <glyph glyph-name="ainarabic" unicode="&#x639;" horiz-adv-x="618" arabic-form="isolated" 
d="M586 188l-0.00292969 135.001h-224c-37.333 17.333 -56 50.333 -56 99c0 30.667 7.83301 56 23.5 76s35.834 30 60.501 30c38.667 0 64.334 -19.333 77.001 -58l112 52c-16.667 38.667 -41.5 68.667 -74.5 90s-70.5 32 -112.5 32c-60.667 0 -112.167 -21 -154.5 -63
s-63.5 -93 -63.5 -153c0 -46.667 8 -86.334 24 -119.001c-53.333 -16.667 -94.333 -45 -123 -85s-43 -88.333 -43 -145c0 -78 24.833 -138.333 74.5 -181s119.834 -64 210.501 -64h184v136h-192c-94.667 0 -142 36.333 -142 109c0 38.667 11.167 66.5 33.5 83.5
s58.5 25.5 108.5 25.5h277z" />
    <glyph glyph-name="ghainarabic" unicode="&#x63a;" horiz-adv-x="618" arabic-form="isolated" 
d="M452 715v116h-124v-116h124zM586 188l-0.00292969 135.001h-224c-37.333 17.333 -56 50.333 -56 99c0 30.667 7.83301 56 23.5 76s35.834 30 60.501 30c38.667 0 64.334 -19.333 77.001 -58l112 52c-16.667 38.667 -41.5 68.667 -74.5 90s-70.5 32 -112.5 32
c-60.667 0 -112.167 -21 -154.5 -63s-63.5 -93 -63.5 -153c0 -46.667 8 -86.334 24 -119.001c-53.333 -16.667 -94.333 -45 -123 -85s-43 -88.333 -43 -145c0 -78 24.833 -138.333 74.5 -181s119.834 -64 210.501 -64h184v136h-192c-94.667 0 -142 36.333 -142 109
c0 38.667 11.167 66.5 33.5 83.5s58.5 25.5 108.5 25.5h277z" />
    <glyph glyph-name="feharabic" unicode="&#x641;" horiz-adv-x="987" arabic-form="isolated" 
d="M791 529v115h-124v-115h124zM955 228c0 69.333 -21.167 124.332 -63.5 164.999s-99.5 61 -171.5 61c-69.333 0 -124.333 -20.5 -165 -61.5s-61 -96.167 -61 -165.5c0 -34 5.33301 -65 16 -93h-144c-72 0 -122.667 10.833 -152 32.5s-44 59.5 -44 113.5v146h-138v-146
c0 -186.667 110.333 -280 331 -280h362c68.667 0 124.167 20.833 166.5 62.5s63.5 96.834 63.5 165.501zM816 223.999c0 -32.667 -8.16602 -59.333 -24.499 -80s-38.5 -31 -66.5 -31c-28.667 0 -51.334 10.5 -68.001 31.5s-25 49.167 -25 84.5
c0 32.667 7.83301 59.667 23.5 81s36.5 32 62.5 32h9c59.333 0 89 -39.333 89 -118z" />
    <glyph glyph-name="qafarabic" unicode="&#x642;" horiz-adv-x="758" arabic-form="isolated" 
d="M648 534v110h-119v-110h119zM466 534v110h-118v-110h118zM725 162l0.000976562 107.999c0 66 -20.333 118.333 -61 157s-95.334 58 -164.001 58c-66.667 0 -119.667 -19.667 -159 -59s-59 -92.333 -59 -159c0 -67.333 20 -120.666 60 -159.999s94 -59 162 -59
c21.333 0 41.333 2 60 6c-36 -62.667 -97.667 -94 -185 -94c-66.667 0 -118.667 19 -156 57s-56 90.333 -56 157v179h-135v-191c0 -94 34 -172.167 102 -234.5s150.667 -93.5 248 -93.5c96 0 177.167 31.5 243.5 94.5s99.5 140.833 99.5 233.5zM592.001 262.999
c0 -31.333 -8 -56.8311 -24 -76.498s-37.333 -29.5 -64 -29.5c-27.333 0 -49 10.167 -65 30.5s-24 47.166 -24 80.499c0 31.333 7.5 57.166 22.5 77.499s34.833 30.5 59.5 30.5h10c56.667 0 85 -37.667 85 -113z" />
    <glyph glyph-name="kafarabic" unicode="&#x643;" horiz-adv-x="927" arabic-form="isolated" 
d="M575 355l-0.000976562 75.999h-113c-14 4.66699 -21 18.334 -21 41.001c0 28.667 11.333 43 34 43c15.333 0 26.333 -10 33 -30l65 31c-19.333 45.333 -51.666 68 -96.999 68c-32 0 -58.5 -11 -79.5 -33s-31.5 -49.667 -31.5 -83c0 -12 2.33301 -24.667 7 -38h-57v-75
h260zM879.999 164.999v479h-138v-407c0 -50 -16.667 -81.667 -50 -95c-13.333 -5.33301 -41 -8 -83 -8h-258c-64 0 -110.333 8.33301 -139 25c-38 22 -57 62.667 -57 122v172h-138v-172c0 -187.333 110.667 -281 332 -281h362c54 0 95.667 14.5 125 43.5s44 69.5 44 121.5z
" />
    <glyph glyph-name="lamarabic" unicode="&#x644;" horiz-adv-x="696" arabic-form="isolated" 
d="M664 174l0.000976562 470h-141v-457c0 -68.667 -15.333 -123 -46 -163s-73.334 -60 -128.001 -60c-54 0 -97.167 20.667 -129.5 62s-48.5 95 -48.5 161v86h-139v-99c0 -96 30.667 -176.667 92 -242s136 -98 224 -98c93.333 0 169.333 32 228 96s88 145.333 88 244z" />
    <glyph glyph-name="meemarabic" unicode="&#x645;" horiz-adv-x="827" arabic-form="isolated" 
d="M795 224c0 68.667 -21.002 124 -63.002 166c-41.333 42 -96.666 63 -165.999 63h-285c-71.333 0 -129.666 -22 -174.999 -66c-49.333 -47.333 -74 -114 -74 -200v-353h138v331c0 101.333 39 152 117 152h64c-10.667 -27.333 -16 -58.333 -16 -93
c0 -69.333 20.333 -124.333 61 -165c41.333 -41.333 96.333 -62 165 -62c70 0 126.333 20 169 60c43.333 41.333 65 97 65 167zM656.998 228c0 -78.667 -29.667 -118 -89 -118h-10c-28 0 -50 12.333 -66 37c-13.333 21.333 -20 47 -20 77c0 32 7.33301 58.333 22 79
c17.333 24 41 36 71 36s53.333 -11.333 70 -34c14.667 -19.333 22 -45 22 -77z" />
    <glyph glyph-name="noonarabic" unicode="&#x646;" horiz-adv-x="696" arabic-form="isolated" 
d="M409 529v115h-124v-115h124zM32 454l-0.000976562 -280c0 -96 30.667 -176.667 92 -242s136 -98 224 -98c89.333 0 164.333 33.167 225 99.5s91 146.5 91 240.5v280h-141v-267c0 -66 -15.667 -119.667 -47 -161s-73.666 -62 -126.999 -62
c-54.667 0 -97.667 20.667 -129 62s-47 95 -47 161v267h-141z" />
    <glyph glyph-name="heharabic" unicode="&#x647;" horiz-adv-x="551" arabic-form="isolated" 
d="M518 241c0 74 -22.667 132.331 -68 174.998s-105 64 -179 64c-72.667 0 -130.667 -21.667 -174 -65s-65 -101.666 -65 -174.999s22.333 -131.666 67 -174.999s103.667 -65 177 -65c72.667 0 131.167 22 175.5 66s66.5 102.333 66.5 175zM384 235.998
c0 -38.667 -9.66797 -69.833 -29.001 -93.5s-45.666 -35.5 -78.999 -35.5c-34.667 0 -62.167 11.5 -82.5 34.5s-30.5 54.5 -30.5 94.5c0 92 36.333 138 109 138c74.667 0 112 -46 112 -138z" />
    <glyph glyph-name="wawarabic" unicode="&#x648;" horiz-adv-x="542" arabic-form="isolated" 
d="M509 20v204c0 66 -21 121 -63 165s-95 66 -159 66c-66 0 -120 -21.167 -162 -63.5s-63 -97.5 -63 -165.5c0 -66.667 21.333 -122 64 -166s96.334 -66 161.001 -66c47.333 0 80.333 15.333 99 46c0 -26 -11.333 -48 -34 -66s-48.334 -27 -77.001 -27h-9v-112h14
c152.667 0 229 61.667 229 185zM369 224c0 -30.667 -7.16602 -55 -21.499 -73s-33.833 -27 -58.5 -27c-26.667 0 -47.834 9.83301 -63.501 29.5s-23.5 44.167 -23.5 73.5s7.5 53.5 22.5 72.5s34.833 28.5 59.5 28.5s45 -9.66699 61 -29s24 -44.333 24 -75z" />
    <glyph glyph-name="alefmaksuraarabic" unicode="&#x649;" horiz-adv-x="786" arabic-form="isolated" 
d="M753 292l-232.001 0.000976562c32.667 48 77.334 72 134.001 72h60v136h-60c-91.333 0 -165 -31.667 -221 -95c-55.333 -63.333 -83 -145 -83 -245h261c-2 -28.667 -7.66699 -54.334 -17 -77.001c-15.333 -36.667 -41 -65.667 -77 -87s-77.667 -32 -125 -32
s-89 10.667 -125 32s-62 50.333 -78 87c-12 30 -18 65 -18 105v107h-140v-120c0 -97.333 34.333 -178.333 103 -243c69.333 -65.333 154.333 -98 255 -98h6c100 0 184.667 32.667 254 98c68.667 64.667 103 145.667 103 243v117z" />
    <glyph glyph-name="yeharabic" unicode="&#x64a;" horiz-adv-x="786" arabic-form="isolated" 
d="M753 292l-232.001 0.000976562c32.667 48 77.334 72 134.001 72h60v136h-60c-91.333 0 -165 -31.667 -221 -95c-55.333 -63.333 -83 -145 -83 -245h261c-2 -28.667 -7.66699 -54.334 -17 -77.001c-15.333 -36.667 -41 -65.667 -77 -87s-77.667 -32 -125 -32
s-89 10.667 -125 32s-62 50.333 -78 87c-12 30 -18 65 -18 105v107h-140v-120c0 -97.333 34.333 -178.333 103 -243c69.333 -65.333 154.333 -98 255 -98h6c100 0 184.667 32.667 254 98c68.667 64.667 103 145.667 103 243v117zM551.999 -373.999v115h-124v-115h124z
M362.999 -373.999v115h-124v-115h124z" />
    <glyph glyph-name="fathatanarabic" unicode="&#xfe70;" arabic-form="isolated" 
d="M231 822l-159.999 -38c-24 -8 -38.667 -22.667 -44 -44c14.667 3.33301 31.5 6.83301 50.5 10.5l45 8.5c11 2 23.167 4.66699 36.5 8s23.666 6.5 30.999 9.5s14.5 6.66699 21.5 11s12 9.33301 15 15s4.5 12.167 4.5 19.5zM220.001 753l-158.999 -37
c-24.667 -8 -39.334 -23 -44.001 -45c14.667 3.33301 31.667 6.83301 51 10.5s34.5 6.66699 45.5 9l36.5 8c13.333 3 23.666 6 30.999 9s14.333 6.66699 21 11s11.334 9.33301 14.001 15s4 12.167 4 19.5z" />
    <glyph glyph-name="dammatanarabic" unicode="&#xfe72;" arabic-form="isolated" 
d="M236 772c0 15.333 -5.50098 28.333 -16.501 39s-23.833 16 -38.5 16c-12.667 0 -24.167 -5.5 -34.5 -16.5s-15.5 -24.167 -15.5 -39.5c0 -20 7.66699 -35.667 23 -47c-16 -9.33301 -33.333 -16 -52 -20c8.66699 8.66699 13 20.667 13 36c0 14 -3.83301 25.333 -11.5 34
s-18.167 13 -31.5 13c-28 0 -44 -16 -48 -48c10.667 14.667 22.334 22 35.001 22c15.333 0 23 -8 23 -24c0 -8 -2.66699 -16.5 -8 -25.5s-11 -14.167 -17 -15.5c12 -18.667 18.333 -28 19 -28c49.333 0 88.333 11.167 117 33.5s43 45.833 43 70.5zM186.999 794
c12 0 18 -6.33301 18 -19s-8.66699 -24 -26 -34c-11.333 10 -17 20 -17 30c0 6 2.66699 11.333 8 16s11 7 17 7z" />
    <glyph glyph-name="kasratanarabic" unicode="&#xfe74;" arabic-form="isolated" 
d="M277 -269l-158.999 -36.999c-24.667 -8 -39.334 -23 -44.001 -45l49 9.5c19.333 3.66699 34.5 6.66699 45.5 9s23.333 5.16602 37 8.49902s24 6.5 31 9.5s14 6.66699 21 11s12 9.33301 15 15s4.5 12.167 4.5 19.5zM267.001 -337.999l-160.001 -36.001
c-23.333 -8 -38 -23.333 -44 -46l68.5 14.5c27.667 5.66699 47.334 9.83398 59.001 12.501s24.667 6.5 39 11.5s24 11 29 18s7.83301 15.5 8.5 25.5z" />
    <glyph glyph-name="fathaarabic" unicode="&#xfe76;" arabic-form="isolated" 
d="M223 755l-159.998 -38.001c-24 -8 -39 -22.667 -45 -44l40.5 7.5l37 7l31.5 6c12 2.33301 21.5 4.5 28.5 6.5s14.667 4.5 23 7.5s14.666 6 18.999 9s8.66602 6.33301 12.999 10s7.5 7.83398 9.5 12.501s3 10 3 16z" />
    <glyph glyph-name="dammaarabic" unicode="&#xfe78;" arabic-form="isolated" 
d="M208 777c0 15.333 -5.33203 28.166 -15.999 38.499s-23 15.5 -37 15.5s-26.167 -5.16699 -36.5 -15.5s-15.5 -23.166 -15.5 -38.499c0 -20.667 7.66699 -37 23 -49c-16.667 -14.667 -49.667 -22.334 -99 -23.001c14 -21.333 21.333 -32 22 -32
c47.333 3.33301 85.666 13.833 114.999 31.5s44 41.834 44 72.501zM159.001 798c12.667 0 19 -6.00098 19 -18.001c0 -13.333 -8.66699 -24.666 -26 -33.999c-12 9.33301 -18 19.333 -18 30c0 6 2.66699 11.167 8 15.5s11 6.5 17 6.5z" />
    <glyph glyph-name="kasraarabic" unicode="&#xfe7a;" arabic-form="isolated" 
d="M230 -288l-158.999 -36.999c-24.667 -8 -39.334 -23 -44.001 -45l51 10l45.5 9c10.333 2 22.333 4.66699 36 8s24 6.5 31 9.5s14 6.83301 21 11.5s11.833 9.66699 14.5 15s4 11.666 4 18.999z" />
    <glyph glyph-name="shaddaarabic" unicode="&#xfe7c;" arabic-form="isolated" 
d="M214 748l-15.002 74.999l-41 -8l15 -67c0.666992 -1.33301 1 -3.66602 1 -6.99902c0 -6.66699 -3.66699 -10 -11 -10c-14 0 -22.667 8 -26 24l-11 54l-40 -9l11 -53c0.666992 -2 1 -5.33301 1 -10v-2l-3 -6c-1.33301 -2.66699 -2.66602 -5.16699 -3.99902 -7.5
s-3.16602 -4.33301 -5.49902 -6s-4.83301 -2.5 -7.5 -2.5c-5.33301 0 -9 4 -11 12l-15 68l-39 -8l16 -77c4.66699 -24 19.667 -36 45 -36c16.667 0 28.5 3.16699 35.5 9.5s12.167 17.833 15.5 34.5c12.667 -18 26.667 -27 42 -27c16 0 28.333 3.83301 37 11.5
s13 17.5 13 29.5c0 5.33301 -1 11.333 -3 18z" />
    <glyph glyph-name="sukunarabic" unicode="&#xfe7e;" arabic-form="isolated" 
d="M163 751c-8 37.333 -29.667 56 -65 56c-51.333 0 -77 -22.333 -77 -67c0 -23.333 6.33301 -41.5 19 -54.5s29 -19.5 49 -19.5c24 0 42.667 6.33301 56 19s20 29 20 49c0 3.33301 -0.666992 9 -2 17zM93 776c10 0 18 -4.5 24 -13.5s9 -19.5 9 -31.5
c0 -10 -3 -18.167 -9 -24.5s-14 -9.5 -24 -9.5c-22 0 -33 15.333 -33 46c0 22 11 33 33 33z" />
    <glyph glyph-name="alefwaslaisolated" unicode="&#x671;" horiz-adv-x="256" arabic-form="isolated" 
d="M210 0v645h-140v-645h140zM263 708c-0.666992 81.333 -26.001 125 -76.001 131h-4c-13.333 0 -28.666 -4.33301 -45.999 -13c-26 -15.333 -45 -36.333 -57 -63v41h-33v-59l-27 -1v-36h243zM220.999 744h-119c25.333 36.667 51 55 77 55h2c18.667 0 32 -18.333 40 -55z
" />
    <glyph glyph-name="peharabic" unicode="&#x67e;" horiz-adv-x="926" arabic-form="isolated" 
d="M894 165l0.000976562 288.001h-138v-217c0 -47.333 -16.667 -78 -50 -92c-14 -6.66699 -41.333 -10 -82 -10h-258c-64.667 0 -111.334 8.33301 -140.001 25c-37.333 21.333 -56 61.666 -56 120.999v174h-138v-174c0 -186.667 110.333 -280 331 -280h362
c54 0 95.667 14.5 125 43.5s44 69.5 44 121.5zM604.001 -177.999v99h-106v-99h106zM443.001 -177.999v99h-105v-99h105zM523.001 -312.999v99h-106v-99h106z" />
    <glyph glyph-name="tcheharabic" unicode="&#x686;" horiz-adv-x="561" arabic-form="isolated" 
d="M451 90v54h-59v-54h59zM362 90v54h-59v-54h59zM406 15v54h-59v-54h59zM525 199c2.66699 19.333 4.00195 40.335 4.00195 63.002c0 97.333 -27 176.166 -81 236.499s-127 90.5 -219 90.5c-24.667 0 -46.667 -1.66699 -66 -5v-124c18.667 7.33301 39 11 61 11
c89.333 0 143 -44.333 161 -133c-72.667 0 -121.334 -2 -146.001 -6c-64.667 -10.667 -115.334 -38 -152.001 -82s-55 -98.667 -55 -164c0 -78.667 25.167 -140.334 75.5 -185.001s123.5 -67 219.5 -67h93v139h-103c-96.667 0 -145 37.667 -145 113
c0 40 11.667 68.833 35 86.5s61 26.5 113 26.5h205z" />
    <glyph glyph-name="jeharabic" unicode="&#x698;" horiz-adv-x="362" arabic-form="isolated" 
d="M330 92l-0.000976562 361h-141v-373c0 -88 -46 -132 -138 -132v-113c96.667 0 166.334 19.333 209.001 58c46.667 40.667 70 107 70 199zM320.999 529v115h-124v-115h124zM138.999 529v115h-124v-115h124zM223.999 685v115h-124v-115h124z" />
    <glyph glyph-name="veharabic" unicode="&#x6a4;" horiz-adv-x="987" arabic-form="isolated" 
d="M786 660v104h-112v-104h112zM875 514v104h-112v-104h112zM705 514v104h-113v-104h113zM955 228c0 70.667 -22.001 126.667 -66.001 168c-41.333 38.667 -97.666 58 -168.999 58c-69.333 0 -124.333 -20.5 -165 -61.5s-61 -96.167 -61 -165.5c0 -34 5.33301 -65 16 -93
h-144c-79.333 0 -133.333 14.333 -162 43c-22.667 22 -34 56.333 -34 103v146h-138v-146c0 -83.333 24.667 -149.666 74 -198.999c54 -54 139.667 -81 257 -81h362c70 0 125.833 20.667 167.5 62s62.5 96.666 62.5 165.999zM815.999 224c0 -30.667 -7.33301 -56.333 -22 -77
c-16 -22.667 -39 -34 -69 -34c-31.333 0 -55.333 12 -72 36c-14 20.667 -21 47.334 -21 80.001c0 29.333 6.66699 54.666 20 75.999c14.667 24.667 36.667 37 66 37h9c59.333 0 89 -39.333 89 -118z" />
    <glyph glyph-name="alefwaslafinal" unicode="&#x671;" horiz-adv-x="360" arabic-form="final" 
d="M263 708c-0.666992 81.333 -26.001 125 -76.001 131h-4c-13.333 0 -28.666 -4.33301 -45.999 -13c-26 -15.333 -45 -36.333 -57 -63v41h-33v-59l-27 -1v-36h243zM220.999 744h-119c25.333 36.667 51 55 77 55h2c18.667 0 32 -18.333 40 -55zM370.999 0l0.000976562 134
h-41c-48.667 0 -80.834 8 -96.501 24s-23.5 42.667 -23.5 80v407h-140v-480c0 -52 14.833 -92.5 44.5 -121.5s71.167 -43.5 124.5 -43.5h132z" />
    <glyph glyph-name="pehfinalarabic" unicode="&#x67e;" horiz-adv-x="1034" arabic-form="final" 
d="M1043 0l0.000976562 134.001h-163c10.667 30 16 63.667 16 101v218h-140v-223c0 -64 -23.667 -96 -71 -96h-319c-64.667 0 -111.334 8.33301 -140.001 25c-37.333 21.333 -56 61.666 -56 120.999v174h-138v-174c0 -186.667 110.333 -280 331 -280h680zM604.001 -177.999
v99h-106v-99h106zM443.001 -177.999v99h-105v-99h105zM523.001 -312.999v99h-106v-99h106z" />
    <glyph glyph-name="pehinitialarabic" unicode="&#x67e;" horiz-adv-x="322" arabic-form="initial" 
d="M290 193v260h-140v-221c0 -65.333 -23.667 -98 -71 -98h-103v-134h133c59.333 -0 105.333 20.333 138 61c28.667 34.667 43 78.667 43 132zM289 -178v99h-105v-99h105zM129 -178v99h-106v-99h106zM209 -313v99h-106v-99h106z" />
    <glyph glyph-name="pehmedialarabic" unicode="&#x67e;" horiz-adv-x="430" arabic-form="medial" 
d="M440 0v134h-164c11.333 32 17 65.667 17 101v218h-141v-223c0 -64 -23.667 -96 -71 -96h-92v-134h451zM300 -178v99h-105v-99h105zM140 -178v99h-106v-99h106zM220 -313v99h-106v-99h106z" />
    <glyph glyph-name="vehfinalarabic" unicode="&#x6a4;" horiz-adv-x="1054" arabic-form="final" 
d="M807 755v104h-111v-104h111zM896 610v104h-112v-104h112zM726 610v104h-112v-104h112zM1074 0v133.999h-79c-42.667 0 -69.667 0.333008 -81 1c43.333 50.667 65 107.334 65 170.001c0 26 -4 51.667 -12 77c-15.333 48.667 -43 87.167 -83 115.5s-86.333 42.5 -139 42.5
c-52 0 -98 -14.167 -138 -42.5s-67.667 -66.833 -83 -115.5c-8 -25.333 -12 -51 -12 -77c0 -63.333 22 -120 66 -170c-12 -0.666992 -39.333 -1 -82 -1h-130c-64 0 -110.667 8 -140 24c-37.333 21.333 -56 62 -56 122v173h-138v-173c0 -186.667 110 -280 330 -280h134
c115.333 0 198.333 9.66699 249 29c56 -19.333 139.333 -29 250 -29h79zM794 200.999c-16.667 -12.667 -32.999 -22.667 -48.999 -30c-16 8 -32 18 -48 30c-39.333 28 -59 65.333 -59 112c0 31.333 9.83301 57.666 29.5 78.999s45.5 32 77.5 32
c33.333 0 59.666 -10.667 78.999 -32s29 -47.666 29 -78.999c0 -46.667 -19.667 -84 -59 -112z" />
    <glyph glyph-name="vehinitialarabic" unicode="&#x6a4;" horiz-adv-x="597" arabic-form="initial" 
d="M395 660v104h-113v-104h113zM483 514v104h-112v-104h112zM313 514v104h-112v-104h112zM565 228c0 70 -21.667 125.168 -65 165.501s-100 60.5 -170 60.5c-69.333 0 -124.333 -20.5 -165 -61.5s-61 -96.167 -61 -165.5c0 -34 5.33301 -65 16 -93h-135v-134h351
c68.667 0 124 21.167 166 63.5s63 97.166 63 164.499zM426 224.001c0 -32.667 -8.16699 -59.333 -24.5 -80s-38.5 -31 -66.5 -31c-28.667 0 -51.5 10.5 -68.5 31.5s-25.5 49.167 -25.5 84.5c0 32.667 8 59.667 24 81s37 32 63 32h9c59.333 0 89 -39.333 89 -118z" />
    <glyph glyph-name="vehmedialarabic" unicode="&#x6a4;" horiz-adv-x="625" arabic-form="medial" 
d="M386 753v104h-112v-104h112zM475 608v104h-113v-104h113zM305 608v104h-112v-104h112zM679 0l0.00195312 133.999h-113c-42 0 -69.333 2.66699 -82 8c43.333 49.333 65 104 65 164c0 68.667 -22.167 124.834 -66.5 168.501s-99.833 65.5 -166.5 65.5
c-65.333 0 -120.5 -22 -165.5 -66s-67.5 -100 -67.5 -168c0 -60 21.667 -114.667 65 -164c-12 -5.33301 -39.333 -8 -82 -8h-112v-134h112c97.333 -0 180.666 12.333 249.999 37c69.333 -24.667 152.666 -37 249.999 -37h113zM365.002 200.999
c-18 -12.667 -34.333 -22.667 -49 -30c-70.667 36 -106 84.333 -106 145c0 33.333 9.83301 60.833 29.5 82.5s45.167 32.5 76.5 32.5c32.667 0 58.667 -11 78 -33s29 -49.333 29 -82c0 -48.667 -19.333 -87 -58 -115z" />
    <glyph glyph-name="tchehfinalarabic" unicode="&#x686;" horiz-adv-x="701" arabic-form="final" 
d="M396 90v54h-59v-54h59zM306 90v54h-59v-54h59zM351 15v54h-59v-54h59zM710 0v133.999h-17c-94 0 -149.667 51 -167 153c-6 98 -34 173.333 -84 226s-119.667 79 -209 79c-22 0 -45.333 -2.66699 -70 -8v-124c20 7.33301 40.333 11 61 11c89.333 0 143 -44.333 161 -133
c-84 -1.33301 -132.333 -3 -145 -5c-63.333 -10.667 -113.833 -38.167 -151.5 -82.5s-56.5 -99.166 -56.5 -164.499c0 -78.667 25.167 -140.167 75.5 -184.5s123.5 -66.5 219.5 -66.5h93v139h-103c-96.667 0 -145 36.333 -145 109c0 78 48.333 117 145 117h92
c23.333 -65.333 60 -115 110 -149s111 -51 183 -51h8z" />
    <glyph glyph-name="tchehinitialarabic" unicode="&#x686;" horiz-adv-x="727" arabic-form="initial" 
d="M514 -178v99h-106v-99h106zM354 -178v99h-106v-99h106zM433 -313v99h-105v-99h105zM696 0l-0.000976562 45.998c0 132 -29.667 234.5 -89 307.5s-145.666 109.833 -258.999 110.5c-97.333 0 -180 -35.333 -248 -106l70 -95c20.667 20.667 46.5 37.834 77.5 51.501
s61.167 20.5 90.5 20.5c58 0 106.5 -19.167 145.5 -57.5s60.167 -86.166 63.5 -143.499h-566v-134h715z" />
    <glyph glyph-name="tchehmedialarabic" unicode="&#x686;" horiz-adv-x="790" arabic-form="medial" 
d="M822 0l0.000976562 134h-126c-16.667 147.333 -79 246.666 -187 297.999c-46 21.333 -98 32 -156 32c-96.667 0 -179 -35.333 -247 -106l70 -95c20 20.667 45.5 37.834 76.5 51.501s61.167 20.5 90.5 20.5c63.333 0 114.666 -21.667 153.999 -65
c35.333 -38 54.333 -83.333 57 -136h-568v-134h836zM520.001 -178v99h-106v-99h106zM360.001 -178v99h-106v-99h106zM439.001 -313v99h-106v-99h106z" />
    <glyph glyph-name="jehfinalarabic" unicode="&#x698;" horiz-adv-x="457" arabic-form="final" 
d="M321 529v115h-124v-115h124zM478 0v134h-148v319h-141v-373c0 -88 -46 -132 -138 -132v-113c158 0 248.667 55 272 165h155zM139 529v115h-124v-115h124zM224 685v115h-124v-115h124z" />
    <glyph glyph-name="alefmaksurainitialarabic" unicode="&#x6cc;" horiz-adv-x="322" arabic-form="initial" 
d="M290 193l-0.000976562 260h-140v-221c0 -65.333 -23.667 -98 -71 -98h-89v-134h119c58.667 -0 104.334 20.333 137.001 61c29.333 35.333 44 79.333 44 132zM280.999 -166v116h-125v-116h125zM91.999 -166v116h-124v-116h124z" />
    <glyph glyph-name="alefmaksuramedialarabic" unicode="&#x6cc;" horiz-adv-x="433" arabic-form="medial" 
d="M443 0v134h-163c10.667 30 16 63.667 16 101v218h-141v-223c0 -64 -23.333 -96 -70 -96h-92v-134h450zM282 -166v116h-124v-116h124zM94 -166v116h-124v-116h124z" />
    <glyph glyph-name="alefmaddaabovefinalarabic" unicode="&#x622;" horiz-adv-x="360" arabic-form="final" 
d="M265 730l-19.001 54c-18.667 -22 -35.667 -33 -51 -33c-3.33301 0 -20.166 6.16699 -50.499 18.5s-49.5 18.5 -57.5 18.5c-23.333 0 -45.333 -14 -66 -42l20 -55c16 22 31.333 33 46 33c8 0 26.333 -6 55 -18s46.667 -18 54 -18c22.667 0 45.667 14 69 42zM370.999 0
l0.000976562 134h-41c-48.667 0 -80.834 8 -96.501 24s-23.5 42.667 -23.5 80v407h-140v-480c0 -52 14.833 -92.5 44.5 -121.5s71.167 -43.5 124.5 -43.5h132z" />
    <glyph glyph-name="alefhamzaabovefinalarabic" unicode="&#x623;" horiz-adv-x="360" arabic-form="final" 
d="M228 700l-0.00195312 52.001h-78c-9.33301 3.33301 -14 12.666 -14 27.999c0 20 7.66699 30 23 30c10.667 0 18 -7 22 -21l45 21c-13.333 31.333 -35.666 47 -66.999 47c-21.333 0 -39.166 -7.66699 -53.499 -23s-21.5 -34.333 -21.5 -57c0 -9.33301 1.33301 -18 4 -26
h-39v-51h179zM370.998 0.000976562l0.000976562 134h-41c-48.667 0 -80.834 8 -96.501 24s-23.5 42.667 -23.5 80v407h-140v-480c0 -52 14.833 -92.5 44.5 -121.5s71.167 -43.5 124.5 -43.5h132z" />
    <glyph glyph-name="wawhamzaabovefinalarabic" unicode="&#x624;" horiz-adv-x="623" arabic-form="final" 
d="M641 0l-0.000976562 134.001h-130v91c0 66.667 -21 121.5 -63 164.5s-95 64.5 -159 64.5c-66.667 0 -121.167 -20.833 -163.5 -62.5s-63.5 -96.167 -63.5 -163.5c0 -66.667 21.333 -121.334 64 -164.001s97 -64 163 -64c46.667 0 75.334 2 86.001 6
c-6 -21.333 -17.667 -36.5 -35 -45.5s-42 -13.5 -74 -13.5v-112h15c136 0 212 55 228 165h132zM370.999 134.001h-80.999c-25.333 0 -46 9.5 -62 28.5s-24 42.833 -24 71.5c0 27.333 7.16699 49.833 21.5 67.5s34.166 26.5 59.499 26.5c26 0 46.833 -8.83301 62.5 -26.5
s23.5 -41.167 23.5 -70.5v-97zM400 510.001v63h-97c-11.333 5.33301 -17 17 -17 35c0 25.333 9.33301 38 28 38c14 0 23.667 -8.66699 29 -26l56 26c-17.333 39.333 -45.333 59 -84 59c-26.667 0 -49 -9.5 -67 -28.5s-27 -42.833 -27 -71.5c0 -9.33301 2 -20 6 -32h-49v-63
h222z" />
    <glyph glyph-name="alefhamzabelowfinalarabic" unicode="&#x625;" horiz-adv-x="360" arabic-form="final" 
d="M262 -199l-0.000976562 52h-79c-8.66699 2.66699 -13 12 -13 28c0 20 7.66699 30 23 30c10 0 17.667 -6.66699 23 -20l45 21c-13.333 31.333 -35.666 47 -66.999 47c-22 0 -40.333 -7.66699 -55 -23s-22 -34.333 -22 -57c0 -6.66699 1.66699 -15.667 5 -27h-40v-51h180z
M370.999 0l0.000976562 134h-41c-48.667 0 -80.834 8 -96.501 24s-23.5 42.667 -23.5 80v407h-140v-480c0 -52 14.833 -92.5 44.5 -121.5s71.167 -43.5 124.5 -43.5h132z" />
    <glyph glyph-name="yehhamzaabovefinalarabic" unicode="&#x626;" horiz-adv-x="988" arabic-form="final" 
d="M319 386l-0.000976562 81h-122c-15.333 6 -23 21 -23 45c0 32 12.333 48 37 48c16.667 0 28.667 -11 36 -33l71 33c-21.333 49.333 -56.666 74 -105.999 74c-34.667 0 -63.5 -12 -86.5 -36s-34.5 -54 -34.5 -90c0 -11.333 2.66699 -25 8 -41h-62v-81h282zM991.999 0
v145.999h-24c-34 0 -60.833 4.83301 -80.5 14.5s-35.834 26.834 -48.501 51.501c-52 100 -133.333 150 -244 150c-44 0 -66 -0.333008 -66 -1v-133c8.66699 2 17.334 3 26.001 3c27.333 0 51 -8.83301 71 -26.5s30 -40.5 30 -68.5c0 -50.667 -23 -92.5 -69 -125.5
s-99.333 -49.5 -160 -49.5c-76 0 -135 22 -177 66s-63 103 -63 177v117h-152v-131c0 -104 37.667 -191.667 113 -263s167.333 -107 276 -107c89.333 0 168.5 22.833 237.5 68.5s111.5 104.167 127.5 175.5c42.667 -42.667 108 -64 196 -64h7z" />
    <glyph glyph-name="yehhamzaaboveinitialarabic" unicode="&#x626;" horiz-adv-x="314" arabic-form="initial" 
d="M282 453v75h-113c-14 5.33301 -21 19 -21 41c0 29.333 11 44 33 44c16 0 27 -10 33 -30l67 31c-20 45.333 -52.667 68 -98 68c-32 0 -58.5 -11.167 -79.5 -33.5s-31.5 -49.833 -31.5 -82.5c0 -12.667 2.33301 -25.667 7 -39h-57v-74h260zM282 193l0.000976562 204.999
h-140v-166c0 -29.333 -4 -51.666 -12 -66.999c-10.667 -20.667 -30.334 -31 -59.001 -31h-86v-134h115c59.333 -0 105.333 20.333 138 61c29.333 35.333 44 79.333 44 132z" />
    <glyph glyph-name="yehhamzaabovemedialarabic" unicode="&#x626;" horiz-adv-x="430" arabic-form="medial" 
d="M297 453l-0.000976562 75h-112c-14 5.33301 -21 19 -21 41c0 29.333 11.333 44 34 44c15.333 0 26 -10 32 -30l66 31c-19.333 45.333 -51.666 68 -96.999 68c-32 0 -58.667 -11.167 -80 -33.5s-32 -49.833 -32 -82.5c0 -11.333 2.66699 -24.333 8 -39h-57v-74h259z
M439.999 0v134h-164c11.333 32 17 65.667 17 101v162h-141v-167c0 -64 -23.667 -96 -71 -96h-92v-134h451z" />
    <glyph glyph-name="aleffinalarabic" unicode="&#x627;" horiz-adv-x="360" arabic-form="final" 
d="M371 0l0.000976562 134h-41c-48.667 0 -80.834 8 -96.501 24s-23.5 42.667 -23.5 80v407h-140v-480c0 -52 14.833 -92.5 44.5 -121.5s71.167 -43.5 124.5 -43.5h132z" />
    <glyph glyph-name="behfinalarabic" unicode="&#x628;" horiz-adv-x="1034" arabic-form="final" 
d="M1043 0l0.000976562 134.001h-163c10.667 30 16 63.667 16 101v218h-140v-223c0 -64 -23.667 -96 -71 -96h-319c-64.667 0 -111.334 8.33301 -140.001 25c-37.333 21.333 -56 61.666 -56 120.999v173h-138v-173c0 -186.667 110.333 -280 331 -280h680zM545.001 -165.999
v116h-125v-116h125z" />
    <glyph glyph-name="behinitialarabic" unicode="&#x628;" horiz-adv-x="322" arabic-form="initial" 
d="M290 193l-0.000976562 260h-140v-221c0 -65.333 -23.667 -98 -71 -98h-89v-134h119c58.667 -0 104.334 20.333 137.001 61c29.333 35.333 44 79.333 44 132zM281.999 -166v116h-124v-116h124z" />
    <glyph glyph-name="behmedialarabic" unicode="&#x628;" horiz-adv-x="430" arabic-form="medial" 
d="M440 0v134h-164c11.333 32 17 65.667 17 101v218h-141v-223c0 -64 -23.667 -96 -71 -96h-92v-134h451zM279 -166v116h-124v-116h124z" />
    <glyph glyph-name="tehmarbutafinalarabic" unicode="&#x629;" horiz-adv-x="662" arabic-form="final" 
d="M456 644v116h-124v-116h124zM268 644v116h-124v-116h124zM680 0v134h-72c-68 0 -102 34 -102 102v315c-178 0 -267 -0.333008 -267 -1c-65.333 0 -116.166 -22 -152.499 -66s-54.5 -103.667 -54.5 -179c0 -70 18 -127.833 54 -173.5s83.667 -68.5 143 -68.5
c69.333 0 116.666 20 141.999 60c32 -82 88 -123 168 -123h141zM362 316c0 -41.333 -8.50098 -74.499 -25.501 -99.499s-40.167 -37.5 -69.5 -37.5c-27.333 0 -50.166 12.5 -68.499 37.5s-27.5 55.167 -27.5 90.5c0 39.333 9.5 72.666 28.5 99.999s42.5 41 70.5 41h92v-132z
" />
    <glyph glyph-name="tehfinalarabic" unicode="&#x62a;" horiz-adv-x="1034" arabic-form="final" 
d="M627 453v116h-125v-116h125zM438 453v116h-125v-116h125zM1043 0l0.000976562 134.001h-163c10.667 30 16 63.667 16 101v218h-140v-223c0 -64 -23.667 -96 -71 -96h-319c-64.667 0 -111.334 8.33301 -140.001 25c-37.333 21.333 -56 61.666 -56 120.999v174h-138v-174
c0 -186.667 110.333 -280 331 -280h680z" />
    <glyph glyph-name="tehinitialarabic" unicode="&#x62a;" horiz-adv-x="322" arabic-form="initial" 
d="M281 529v115h-125v-115h125zM92 529v115h-124v-115h124zM290 193l-0.000976562 260h-140v-221c0 -65.333 -23.667 -98 -71 -98h-89v-134h119c58.667 -0 104.334 20.333 137.001 61c29.333 35.333 44 79.333 44 132z" />
    <glyph glyph-name="tehmedialarabic" unicode="&#x62a;" horiz-adv-x="430" arabic-form="medial" 
d="M282 529v115h-124v-115h124zM94 529v115h-124v-115h124zM440 0v134h-164c11.333 32 17 65.667 17 101v218h-141v-223c0 -64 -23.667 -96 -71 -96h-92v-134h451z" />
    <glyph glyph-name="thehfinalarabic" unicode="&#x62b;" horiz-adv-x="1034" arabic-form="final" 
d="M535 613v116h-125v-116h125zM630 454v115h-125v-115h125zM441 454v115h-125v-115h125zM1043 0l0.000976562 134.001h-163c10.667 30 16 63.667 16 101v218h-140v-223c0 -64 -23.667 -96 -71 -96h-319c-64.667 0 -111.334 8.33301 -140.001 25
c-37.333 21.333 -56 61.666 -56 120.999v174h-138v-174c0 -186.667 110.333 -280 331 -280h680z" />
    <glyph glyph-name="thehinitialarabic" unicode="&#x62b;" horiz-adv-x="322" arabic-form="initial" 
d="M185 694v115h-124v-115h124zM281 529v115h-125v-115h125zM92 529v115h-124v-115h124zM290 193l-0.000976562 260h-140v-221c0 -65.333 -23.667 -98 -71 -98h-89v-134h119c58.667 -0 104.334 20.333 137.001 61c29.333 35.333 44 79.333 44 132z" />
    <glyph glyph-name="thehmedialarabic" unicode="&#x62b;" horiz-adv-x="431" arabic-form="medial" 
d="M187 694v115h-124v-115h124zM282 529v115h-124v-115h124zM94 529v115h-124v-115h124zM442 0v134h-164c10.667 30 16 63.667 16 101v218h-140v-223c0 -64 -23.667 -96 -71 -96h-92v-134h451z" />
    <glyph glyph-name="jeemfinalarabic" unicode="&#x62c;" horiz-adv-x="701" arabic-form="final" 
d="M710 0v133.999h-17c-94 0 -149.667 51 -167 153c-6 98 -34 173.333 -84 226s-119.667 79 -209 79c-22 0 -45.333 -2.66699 -70 -8v-124c20 7.33301 40.333 11 61 11c89.333 0 143 -44.333 161 -133c-84 -1.33301 -132.333 -3 -145 -5
c-63.333 -10.667 -113.833 -38.167 -151.5 -82.5s-56.5 -99.166 -56.5 -164.499c0 -78.667 25.167 -140.167 75.5 -184.5s123.5 -66.5 219.5 -66.5h93v139h-103c-96.667 0 -145 36.333 -145 109c0 78 48.333 117 145 117h92c23.333 -65.333 60 -115 110 -149
s111 -51 183 -51h8zM385 35.999v115h-125v-115h125z" />
    <glyph glyph-name="jeeminitialarabic" unicode="&#x62c;" horiz-adv-x="729" arabic-form="initial" 
d="M696 0l-0.000976562 45.998c0 132 -29.667 234.5 -89 307.5s-145.666 109.833 -258.999 110.5c-97.333 0 -180 -35.333 -248 -106l70 -95c20.667 20.667 46.5 37.834 77.5 51.501s61.167 20.5 90.5 20.5c58 0 106.5 -19.167 145.5 -57.5s60.167 -86.166 63.5 -143.499
h-566v-134h715zM424.999 -166.002v116h-125v-116h125z" />
    <glyph glyph-name="jeemmedialarabic" unicode="&#x62c;" horiz-adv-x="790" arabic-form="medial" 
d="M822 0l0.000976562 134h-126c-16.667 147.333 -79 246.666 -187 297.999c-46 21.333 -98 32 -156 32c-96.667 0 -179 -35.333 -247 -106l70 -95c20 20.667 45.5 37.834 76.5 51.501s61.167 20.5 90.5 20.5c63.333 0 114.666 -21.667 153.999 -65
c35.333 -38 54.333 -83.333 57 -136h-568v-134h836zM426.001 -166v116h-124v-116h124z" />
    <glyph glyph-name="hahfinalarabic" unicode="&#x62d;" horiz-adv-x="701" arabic-form="final" 
d="M710 0v133.999h-17c-94 0 -149.667 51 -167 153c-6 98 -34 173.333 -84 226s-119.667 79 -209 79c-22 0 -45.333 -2.66699 -70 -8v-124c20 7.33301 40.333 11 61 11c89.333 0 143 -44.333 161 -133c-84 -1.33301 -132.333 -3 -145 -5
c-63.333 -10.667 -113.833 -38.167 -151.5 -82.5s-56.5 -99.166 -56.5 -164.499c0 -78.667 25.167 -140.167 75.5 -184.5s123.5 -66.5 219.5 -66.5h93v139h-103c-96.667 0 -145 36.333 -145 109c0 78 48.333 117 145 117h92c23.333 -65.333 60 -115 110 -149
s111 -51 183 -51h8z" />
    <glyph glyph-name="hahinitialarabic" unicode="&#x62d;" horiz-adv-x="729" arabic-form="initial" 
d="M696 0l-0.000976562 45.998c0 132 -29.667 234.5 -89 307.5s-145.666 109.833 -258.999 110.5c-97.333 0 -180 -35.333 -248 -106l70 -95c20.667 20.667 46.5 37.834 77.5 51.501s61.167 20.5 90.5 20.5c58 0 106.5 -19.167 145.5 -57.5s60.167 -86.166 63.5 -143.499
h-566v-134h715z" />
    <glyph glyph-name="hahmedialarabic" unicode="&#x62d;" horiz-adv-x="790" arabic-form="medial" 
d="M802 0l0.000976562 134h-106c-16.667 147.333 -79 246.666 -187 297.999c-46 21.333 -98 32 -156 32c-96.667 0 -179 -35.333 -247 -106l70 -95c20 20.667 45.5 37.834 76.5 51.501s61.167 20.5 90.5 20.5c63.333 0 114.666 -21.667 153.999 -65
c35.333 -38 54.333 -83.333 57 -136h-568v-134h816z" />
    <glyph glyph-name="khahfinalarabic" unicode="&#x62e;" horiz-adv-x="701" arabic-form="final" 
d="M384 644v116h-125v-116h125zM710 0v133.999h-17c-94 0 -149.667 51 -167 153c-6 98 -34 173.333 -84 226s-119.667 79 -209 79c-22 0 -45.333 -2.66699 -70 -8v-124c20 7.33301 40.333 11 61 11c89.333 0 143 -44.333 161 -133c-84 -1.33301 -132.333 -3 -145 -5
c-63.333 -10.667 -113.833 -38.167 -151.5 -82.5s-56.5 -99.166 -56.5 -164.499c0 -78.667 25.167 -140.167 75.5 -184.5s123.5 -66.5 219.5 -66.5h93v139h-103c-96.667 0 -145 36.333 -145 109c0 78 48.333 117 145 117h92c23.333 -65.333 60 -115 110 -149
s111 -51 183 -51h8z" />
    <glyph glyph-name="khahinitialarabic" unicode="&#x62e;" horiz-adv-x="729" arabic-form="initial" 
d="M407 529v115h-125v-115h125zM696 0l-0.000976562 45.998c0 132 -29.667 234.5 -89 307.5s-145.666 109.833 -258.999 110.5c-97.333 0 -180 -35.333 -248 -106l70 -95c20.667 20.667 46.5 37.834 77.5 51.501s61.167 20.5 90.5 20.5c58 0 106.5 -19.167 145.5 -57.5
s60.167 -86.166 63.5 -143.499h-566v-134h715z" />
    <glyph glyph-name="khahmedialarabic" unicode="&#x62e;" horiz-adv-x="790" arabic-form="medial" 
d="M413 529v115h-124v-115h124zM802 0l0.000976562 134h-106c-16.667 147.333 -79 246.666 -187 297.999c-46 21.333 -98 32 -156 32c-96.667 0 -179 -35.333 -247 -106l70 -95c20 20.667 45.5 37.834 76.5 51.501s61.167 20.5 90.5 20.5
c63.333 0 114.666 -21.667 153.999 -65c35.333 -38 54.333 -83.333 57 -136h-568v-134h816z" />
    <glyph glyph-name="dalfinalarabic" unicode="&#x62f;" horiz-adv-x="692" arabic-form="final" 
d="M710 0v135h-145c0 150 -69 249.667 -207 299c-36 12.667 -98.333 19 -187 19v-117c88.667 0 153.167 -16.167 193.5 -48.5s60.5 -83.5 60.5 -153.5h-363v-134h648z" />
    <glyph glyph-name="thalfinalarabic" unicode="&#x630;" horiz-adv-x="692" arabic-form="final" 
d="M358 529v115h-125v-115h125zM710 0v135h-145c0 150 -69 249.667 -207 299c-36 12.667 -98.333 19 -187 19v-117c88.667 0 153.167 -16.167 193.5 -48.5s60.5 -83.5 60.5 -153.5h-363v-134h648z" />
    <glyph glyph-name="rehfinalarabic" unicode="&#x631;" horiz-adv-x="457" arabic-form="final" 
d="M478 0v134h-148v319h-141v-373c0 -88 -46 -132 -138 -132v-113c158 0 248.667 55 272 165h155z" />
    <glyph glyph-name="zainfinalarabic" unicode="&#x632;" horiz-adv-x="457" arabic-form="final" 
d="M321 529v115h-124v-115h124zM478 0v134h-148v319h-141v-373c0 -88 -46 -132 -138 -132v-113c158 0 248.667 55 272 165h155z" />
    <glyph glyph-name="seenfinalarabic" unicode="&#x633;" horiz-adv-x="1365" arabic-form="final" 
d="M1379 0v134.002h-163c12 30.667 18 64.667 18 102v217h-141v-229c0 -60 -23.667 -90 -71 -90h-89c11.333 30.667 17 64.334 17 101.001v218h-140v-229c0 -60 -23.667 -90 -71 -90h-75c1.33301 17.333 2 30.666 2 39.999v33c0.666992 6 1 15.333 1 28v218h-1v1h-141v-267
c0 -60.667 -13.333 -111.334 -40 -152.001c-32 -47.333 -77 -71 -135 -71c-58.667 0 -103.667 23.667 -135 71c-27.333 41.333 -41 92 -41 152v267h-140v-280c0 -96.667 30.333 -177.334 91 -242.001c61.333 -65.333 136.333 -98 225 -98c92.667 0.666992 169 35 229 103
c16.667 20 31.667 41 45 63h755z" />
    <glyph glyph-name="seeninitialarabic" unicode="&#x633;" horiz-adv-x="915" arabic-form="initial" 
d="M-32 0l698 -0.00195312c50 0 94.667 17.667 134 53c48.667 44 73 105 73 183v217h-141v-229c0 -60 -23.667 -90 -71 -90h-89c11.333 30.667 17 64.334 17 101.001v218h-140v-229c0 -60 -23.667 -90 -71 -90h-89c11.333 30.667 17 64.334 17 101.001v218h-141v-223
c0 -26.667 -2 -44 -6 -52c-11.333 -29.333 -33 -44 -65 -44h-126v-134z" />
    <glyph glyph-name="seenmedialarabic" unicode="&#x633;" horiz-adv-x="1005" arabic-form="medial" 
d="M1018 0v133.998h-163c12 30.667 18 64.667 18 102v217h-141v-229c0 -60 -23.667 -90 -71 -90h-89c11.333 30.667 17 64.334 17 101.001v218h-140v-229c0 -60 -23.667 -90 -71 -90h-89c11.333 30.667 17 64.334 17 101.001v218h-141v-224
c0 -34 -5.83301 -58.333 -17.5 -73s-29.5 -22 -53.5 -22h-106v-134h1030z" />
    <glyph glyph-name="sheenfinalarabic" unicode="&#x634;" horiz-adv-x="1365" arabic-form="final" 
d="M1379 0v134.002h-163c12 30.667 18 64.667 18 102v217h-141v-229c0 -60 -23.667 -90 -71 -90h-89c11.333 30.667 17 64.334 17 101.001v218h-140v-229c0 -60 -23.667 -90 -71 -90h-75c1.33301 17.333 2 30.666 2 39.999v33c0.666992 6 1 15.333 1 28v218h-1v1h-141v-267
c0 -60.667 -13.333 -111.334 -40 -152.001c-32 -47.333 -77 -71 -135 -71c-58.667 0 -103.667 23.667 -135 71c-27.333 41.333 -41 92 -41 152v267h-140v-280c0 -96.667 30.333 -177.334 91 -242.001c61.333 -65.333 136.333 -98 225 -98c92.667 0.666992 169 35 229 103
c16.667 20 31.667 41 45 63h755zM844 529.002v115h-125v-115h125zM936 694.002v115h-124v-115h124zM1032 529.002v115h-124v-115h124z" />
    <glyph glyph-name="sheeninitialarabic" unicode="&#x634;" horiz-adv-x="915" arabic-form="initial" 
d="M873 236l-0.000976562 216.999h-141v-229c0 -60 -23.667 -90 -71 -90h-89c11.333 30.667 17 64.334 17 101.001v218h-140v-229c0 -60 -23.667 -90 -71 -90h-89c11.333 30.667 17 64.334 17 101.001v218h-141v-223c0 -34.667 -5.83301 -59.334 -17.5 -74.001
s-29.5 -22 -53.5 -22h-126v-134h246l1 -1v1h451c58.667 -0 107.834 22.333 147.501 67s59.5 101 59.5 169zM484.999 528.999v115h-125v-115h125zM576.999 693.999v115h-124v-115h124zM672.999 528.999v115h-124v-115h124z" />
    <glyph glyph-name="sheenmedialarabic" unicode="&#x634;" horiz-adv-x="1005" arabic-form="medial" 
d="M1018 0v133.998h-163c12 30.667 18 64.667 18 102v217h-141v-229c0 -60 -23.667 -90 -71 -90h-89c11.333 30.667 17 64.334 17 101.001v218h-140v-229c0 -60 -23.667 -90 -71 -90h-89c11.333 30.667 17 64.334 17 101.001v218h-141v-224
c0 -34 -5.83301 -58.333 -17.5 -73s-29.5 -22 -53.5 -22h-126v-134h1050zM483 528.998v115h-125v-115h125zM575 693.998v115h-124v-115h124zM671 528.998v115h-124v-115h124z" />
    <glyph glyph-name="sadfinalarabic" unicode="&#x635;" horiz-adv-x="1353" arabic-form="final" 
d="M1364 0l0.00195312 133.999h-109c-6.66699 102.667 -33.334 181.834 -80.001 237.501s-111 83.5 -193 83.5c-56 0 -111.667 -15.833 -167 -47.5s-105 -75.5 -149 -131.5v178h-141v-267c0 -66.667 -15.833 -120.5 -47.5 -161.5s-74.167 -61.5 -127.5 -61.5
c-54 0 -96.833 20.667 -128.5 62s-47.5 95 -47.5 161v267h-140v-280c0 -96 30.667 -176.667 92 -242s136 -98 224 -98c117.333 0 208.666 55.333 273.999 166h740zM1109 133.999h-410c77.333 132.667 168 199 272 199c42.667 0 76.5 -17 101.5 -51s37.5 -77.333 37.5 -130z
" />
    <glyph glyph-name="sadinitialarabic" unicode="&#x635;" horiz-adv-x="947" arabic-form="initial" 
d="M893 0c3.33301 34.667 5.00098 65.333 5.00098 92c0 114 -23.667 203 -71 267s-115.333 96 -204 96c-56 0 -111.833 -16.167 -167.5 -48.5s-105.834 -77.166 -150.501 -134.499v133h-140v-175c0 -34.667 -5.83301 -59.334 -17.5 -74.001s-29.5 -22 -53.5 -22h-126v-134
h925zM751.001 133.999h-410c77.333 132.667 168 199 272 199c42.667 0 76.5 -17 101.5 -51s37.5 -77.333 37.5 -130z" />
    <glyph glyph-name="sadmedialarabic" unicode="&#x635;" horiz-adv-x="994" arabic-form="medial" 
d="M1003 0l0.000976562 134h-109c-6.66699 102.667 -33.334 181.834 -80.001 237.501s-111 83.5 -193 83.5c-56 0 -111.667 -15.833 -167 -47.5s-105 -75.5 -149 -131.5v129h-140v-175c0 -34.667 -5.83301 -59.334 -17.5 -74.001s-29.5 -22 -53.5 -22h-126v-134h1035z
M748.001 134h-410c77.333 132.667 168 199 272 199c42.667 0 76.5 -17 101.5 -51s37.5 -77.333 37.5 -130z" />
    <glyph glyph-name="dadfinalarabic" unicode="&#x636;" horiz-adv-x="1353" arabic-form="final" 
d="M1364 0l0.00195312 133.999h-109c-6.66699 102.667 -33.334 181.834 -80.001 237.501s-111 83.5 -193 83.5c-56 0 -111.667 -15.833 -167 -47.5s-105 -75.5 -149 -131.5v178h-141v-267c0 -66.667 -15.833 -120.5 -47.5 -161.5s-74.167 -61.5 -127.5 -61.5
c-54 0 -96.833 20.667 -128.5 62s-47.5 95 -47.5 161v267h-140v-280c0 -96 30.667 -176.667 92 -242s136 -98 224 -98c117.333 0 208.666 55.333 273.999 166h740zM1109 133.999h-410c77.333 132.667 168 199 272 199c42.667 0 76.5 -17 101.5 -51s37.5 -77.333 37.5 -130z
M1020 528.999v115h-125v-115h125z" />
    <glyph glyph-name="dadinitialarabic" unicode="&#x636;" horiz-adv-x="947" arabic-form="initial" 
d="M893 0c3.33301 34.667 5.00098 65.333 5.00098 92c0 114 -23.667 203 -71 267s-115.333 96 -204 96c-56 0 -111.833 -16.167 -167.5 -48.5s-105.834 -77.166 -150.501 -134.499v133h-140v-175c0 -34.667 -5.83301 -59.334 -17.5 -74.001s-29.5 -22 -53.5 -22h-126v-134
h925zM751.001 133.999h-410c77.333 132.667 168 199 272 199c42.667 0 76.5 -17 101.5 -51s37.5 -77.333 37.5 -130zM662.001 528.999v115h-125v-115h125z" />
    <glyph glyph-name="dadmedialarabic" unicode="&#x636;" horiz-adv-x="994" arabic-form="medial" 
d="M1003 0l0.000976562 134h-109c-6.66699 102.667 -33.334 181.834 -80.001 237.501s-111 83.5 -193 83.5c-56 0 -111.667 -15.833 -167 -47.5s-105 -75.5 -149 -131.5v129h-140v-175c0 -34.667 -5.83301 -59.334 -17.5 -74.001s-29.5 -22 -53.5 -22h-126v-134h1035z
M748.001 134h-410.001c77.333 132.667 168 199 272 199c44.667 0 78.834 -18.833 102.501 -56.5s35.5 -85.167 35.5 -142.5zM659 529v115h-125v-115h125z" />
    <glyph glyph-name="tahfinalarabic" unicode="&#x637;" horiz-adv-x="909" arabic-form="final" 
d="M919 0l-0.000976562 134h-109c-6 102 -32.5 181 -79.5 237s-111.5 84 -193.5 84c-99.333 0 -192.666 -46 -279.999 -138l13 327h-140v-510h-98v-134h887zM663.999 134h-409.999c77.333 132.667 167.666 199 270.999 199c44 0 78.167 -16.833 102.5 -50.5
s36.5 -78.5 36.5 -134.5v-14z" />
    <glyph glyph-name="tahinitialarabic" unicode="&#x637;" horiz-adv-x="867" arabic-form="initial" 
d="M829 0c3.33301 34.667 5 65.333 5 92c0 114 -23.667 203 -71 267s-115.333 96 -204 96c-98 0 -191 -46 -279 -138l13 327h-139v-510h-205v-134h880zM687 133.999l-410 0.000976562c77.333 132.667 168 199 272 199c42.667 0 76.5 -16.667 101.5 -50
s37.5 -76.333 37.5 -129c0 -8.66699 -0.333008 -15.334 -1 -20.001z" />
    <glyph glyph-name="tahmedialarabic" unicode="&#x637;" horiz-adv-x="933" arabic-form="medial" 
d="M943 0v134.001h-109c-7.33301 103.333 -34.333 182.666 -81 237.999s-111 83 -193 83c-98.667 0 -192 -46 -280 -138l13 327h-139v-510h-160v-134h949zM687 134.001l-410 0.000976562c77.333 132.667 168 199 272 199c42.667 0 76.5 -16.667 101.5 -50
s37.5 -76.333 37.5 -129c0 -8.66699 -0.333008 -15.334 -1 -20.001z" />
    <glyph glyph-name="zahfinalarabic" unicode="&#x638;" horiz-adv-x="909" arabic-form="final" 
d="M575 529v115h-125v-115h125zM919 0l-0.000976562 134h-109c-6 102 -32.5 181 -79.5 237s-111.5 84 -193.5 84c-99.333 0 -192.666 -46 -279.999 -138l13 327h-140v-510h-98v-134h887zM574.999 529h-125v115h125v-115zM663.999 134h-409.998
c77.333 132.667 167.666 199 270.999 199c43.333 0 77.166 -16.833 101.499 -50.5s36.833 -78.5 37.5 -134.5v-14zM575.001 529v115h-125v-115h125z" />
    <glyph glyph-name="zahinitialarabic" unicode="&#x638;" horiz-adv-x="867" arabic-form="initial" 
d="M610 529v115h-125v-115h125zM829 0c3.33301 34.667 5 65.333 5 92c0 114 -23.667 203 -71 267s-115.333 96 -204 96c-98 0 -191 -46 -279 -138l13 327h-139v-510h-205v-134h880zM687 133.999l-410 0.000976562c77.333 132.667 168 199 272 199
c42.667 0 76.5 -16.667 101.5 -50s37.5 -76.333 37.5 -129c0 -8.66699 -0.333008 -15.334 -1 -20.001z" />
    <glyph glyph-name="zahmedialarabic" unicode="&#x638;" horiz-adv-x="933" arabic-form="medial" 
d="M587 529v115h-124v-115h124zM943 0v134.001h-109c-7.33301 103.333 -34.333 182.666 -81 237.999s-111 83 -193 83c-98.667 0 -192 -46 -280 -138l13 327h-139v-510h-160v-134h949zM587 529.001h-124v115h124v-115zM687 134.001l-410 0.000976562
c77.333 132.667 168 199 272 199c42.667 0 76.5 -16.667 101.5 -50s37.5 -76.333 37.5 -129c0 -8.66699 -0.333008 -15.334 -1 -20.001zM587 529.002v115h-124v-115h124z" />
    <glyph glyph-name="ainfinalarabic" unicode="&#x639;" horiz-adv-x="756" arabic-form="final" 
d="M766 0l-0.00292969 134h-11c-112.667 0 -169 63 -169 189h-224c-37.333 14 -56 47 -56 99c0 30.667 7.83301 56 23.5 76s35.834 30 60.501 30c38.667 0 64.334 -19.333 77.001 -58l112 52c-16.667 38.667 -41.5 68.667 -74.5 90s-70.5 32 -112.5 32
c-62.667 0 -114.667 -22 -156 -66s-62 -98 -62 -162c0 -35.333 8 -71 24 -107c-53.333 -16.667 -94.333 -45 -123 -85s-43 -88.333 -43 -145c0 -77.333 24.5 -137.5 73.5 -180.5s119.5 -64.5 211.5 -64.5h184v135h-192c-94.667 0 -142 36.667 -142 110
c0 38.667 11.167 66.5 33.5 83.5s58.5 25.5 108.5 25.5h167c42.667 -124 136.334 -186.667 281.001 -188h9z" />
    <glyph glyph-name="aininitialarabic" unicode="&#x639;" horiz-adv-x="581" arabic-form="initial" 
d="M548 0l-0.000976562 134.001h-232c-37.333 15.333 -56 49.666 -56 102.999c0 30 7 54.667 21 74c14.667 22.667 36.334 34 65.001 34c40 0 66.667 -19.667 80 -59l115 53c-17.333 39.333 -43 70.333 -77 93s-72.333 34 -115 34c-66 0 -120.333 -23 -163 -69
c-42 -46 -63 -101.667 -63 -167c0 -28 6.66699 -60 20 -96h-158v-134h563z" />
    <glyph glyph-name="ainmedialarabic" unicode="&#x639;" horiz-adv-x="812" arabic-form="medial" 
d="M834 0l-0.00195312 133.999h-228c-32.667 0 -57.667 8.33301 -75 25c36 22 74.333 56.333 115 103c38 44 62.333 79.333 73 106c-95.333 73.333 -198.333 110 -309 110c-93.333 0 -185.666 -27 -276.999 -81v-115c38.667 -6.66699 79.334 -23.334 122.001 -50.001
c36.667 -23.333 62 -44.666 76 -63.999c-36.667 -22.667 -80 -34 -130 -34h-218v-134h220c39.333 0 80.666 6.66699 123.999 20c38 12.667 69.333 29.334 94 50.001c44.667 -46.667 96.334 -70 155.001 -70h258zM545.998 330.999c-8 -13.333 -23.332 -29.667 -45.999 -49
c-24 -22 -45.667 -37.333 -65 -46c-22.667 26.667 -43.334 46.667 -62.001 60c-20 14.667 -44 28 -72 40c38 18.667 77.667 28 119 28s83.333 -11 126 -33z" />
    <glyph glyph-name="ghainfinalarabic" unicode="&#x63a;" horiz-adv-x="756" arabic-form="final" 
d="M452 715v116h-124v-116h124zM766 0l-0.00292969 134h-11c-112.667 0 -169 63 -169 189h-224c-37.333 14 -56 47 -56 99c0 30.667 7.83301 56 23.5 76s35.834 30 60.501 30c38.667 0 64.334 -19.333 77.001 -58l112 52c-16.667 38.667 -41.5 68.667 -74.5 90
s-70.5 32 -112.5 32c-62.667 0 -114.667 -22 -156 -66s-62 -98 -62 -162c0 -35.333 8 -71 24 -107c-53.333 -16.667 -94.333 -45 -123 -85s-43 -88.333 -43 -145c0 -77.333 24.5 -137.5 73.5 -180.5s119.5 -64.5 211.5 -64.5h184v135h-192c-94.667 0 -142 36.667 -142 110
c0 38.667 11.167 66.5 33.5 83.5s58.5 25.5 108.5 25.5h167c42.667 -124 136.334 -186.667 281.001 -188h9z" />
    <glyph glyph-name="ghaininitialarabic" unicode="&#x63a;" horiz-adv-x="581" arabic-form="initial" 
d="M412 529v115h-124v-115h124zM548 0l-0.000976562 134.001h-232c-37.333 15.333 -56 49.666 -56 102.999c0 30 7 54.667 21 74c14.667 22.667 36.334 34 65.001 34c40 0 66.667 -19.667 80 -59l115 53c-17.333 39.333 -43 70.333 -77 93s-72.333 34 -115 34
c-66 0 -120.333 -23 -163 -69c-42 -46 -63 -101.667 -63 -167c0 -28 6.66699 -60 20 -96h-160v-134h565z" />
    <glyph glyph-name="ghainmedialarabic" unicode="&#x63a;" horiz-adv-x="812" arabic-form="medial" 
d="M484 550v115h-125v-115h125zM834 0l-0.00195312 133.999h-228c-32.667 0 -57.667 8.33301 -75 25c36 22 74.333 56.333 115 103c38 44 62.333 79.333 73 106c-95.333 73.333 -198.333 110 -309 110c-93.333 0 -185.666 -27 -276.999 -81v-115
c38.667 -6.66699 79.334 -23.334 122.001 -50.001c36.667 -23.333 62 -44.666 76 -63.999c-36.667 -22.667 -80 -34 -130 -34h-218v-134h220c39.333 0 80.666 6.66699 123.999 20c38 12.667 69.333 29.334 94 50.001c44.667 -46.667 96.334 -70 155.001 -70h258z
M545.998 330.999c-8 -13.333 -23.332 -29.667 -45.999 -49c-24 -22 -45.667 -37.333 -65 -46c-22.667 26.667 -43.334 46.667 -62.001 60c-20 14.667 -44 28 -72 40c38 18.667 77.667 28 119 28s83.333 -11 126 -33z" />
    <glyph glyph-name="fehfinalarabic" unicode="&#x641;" horiz-adv-x="1054" arabic-form="final" 
d="M806 627v115h-124v-115h124zM1063 0l0.000976562 134h-68c-42.667 0 -69.667 0.333008 -81 1c43.333 50.667 65 107.334 65 170.001c0 26 -4 51.667 -12 77c-15.333 48.667 -43 87.167 -83 115.5s-86.333 42.5 -139 42.5c-52 0 -98 -14.167 -138 -42.5
s-67.667 -66.833 -83 -115.5c-8 -25.333 -12 -51 -12 -77c0 -63.333 22 -120 66 -170c-12 -0.666992 -39.333 -1 -82 -1h-130c-64.667 0 -111.334 8.33301 -140.001 25c-37.333 21.333 -56 61.666 -56 120.999v173h-138v-173c0 -186.667 110 -280 330 -280h134
c111.333 0 194.333 9.66699 249 29c56 -19.333 139.333 -29 250 -29h68zM794.001 201c-16.667 -12.667 -32.999 -22.667 -48.999 -30c-16 8 -32 18 -48 30c-39.333 28 -59 65.333 -59 112c0 31.333 9.83301 57.666 29.5 78.999s45.5 32 77.5 32
c33.333 0 59.666 -10.667 78.999 -32s29 -47.666 29 -78.999c0 -46.667 -19.667 -84 -59 -112z" />
    <glyph glyph-name="fehinitialarabic" unicode="&#x641;" horiz-adv-x="610" arabic-form="initial" 
d="M401 530v115h-124v-115h124zM578 228c0 71.333 -21.666 126.667 -64.999 166c-42.667 40 -99.334 60 -170.001 60c-69.333 0 -124.333 -20.5 -165 -61.5s-61 -96.167 -61 -165.5c0 -34 5.33301 -65 16 -93h-150v-134h366c70 0 125.333 21 166 63c42 42 63 97 63 165z
M439.001 224.001c0 -30.667 -7.33301 -56.333 -22 -77c-16.667 -22.667 -39.667 -34 -69 -34c-30.667 0 -54.667 12 -72 36c-14.667 20.667 -22 47.334 -22 80.001c0 29.333 6.66699 54.666 20 75.999c16 24.667 38 37 66 37h10c59.333 0 89 -39.333 89 -118z" />
    <glyph glyph-name="fehmedialarabic" unicode="&#x641;" horiz-adv-x="626" arabic-form="medial" 
d="M376 627v115h-124v-115h124zM647 0v134h-81c-42 0 -69.333 2.66699 -82 8c43.333 49.333 65 104 65 164c0 25.333 -4 50.666 -12 75.999c-15.333 48.667 -42.666 87.167 -81.999 115.5s-85.666 42.5 -138.999 42.5c-52.667 0 -98.667 -14.167 -138 -42.5
s-67 -66.833 -83 -115.5c-8 -25.333 -12 -50.666 -12 -75.999c0 -60 21.667 -114.667 65 -164c-12 -5.33301 -39.333 -8 -82 -8h-91v-134h91c97.333 -0 180.666 12.333 249.999 37c69.333 -24.667 152.666 -37 249.999 -37h81zM365 201
c-18 -12.667 -34.333 -22.668 -49 -30.001c-16 8 -32 18 -48 30c-38.667 28 -58 66.333 -58 115c0 30.667 8.66699 57.334 26 80.001c21.333 23.333 48 35 80 35c32.667 0 58.667 -11 78 -33s29 -49.333 29 -82c0 -48.667 -19.333 -87 -58 -115z" />
    <glyph glyph-name="qaffinalarabic" unicode="&#x642;" horiz-adv-x="848" arabic-form="final" 
d="M648 534v110h-119v-110h119zM466 534v110h-118v-110h118zM859 0l-0.00195312 134.002h-134v136c0 66.667 -20.167 119.167 -60.5 157.5s-95.166 57.5 -164.499 57.5c-64 0 -116.167 -22.333 -156.5 -67s-60.5 -101 -60.5 -169c0 -72.667 22.667 -132.334 68 -179.001
s104 -70.334 176 -71.001c-37.333 -26 -86.666 -39 -147.999 -39c-66.667 0 -118.667 19 -156 57s-56 90.333 -56 157v179h-135v-191c0 -94 34 -172.167 102 -234.5s150.667 -93.5 248 -93.5c70 0 131.5 14.5 184.5 43.5s93.5 69.833 121.5 122.5h171zM591.998 246.002
l-0.000976562 -112.001h-23c-47.333 0 -83.833 10 -109.5 30s-38.5 49 -38.5 87c0 34.667 7.83301 64.334 23.5 89.001s36.834 37 63.501 37c56 0 84 -43.667 84 -131z" />
    <glyph glyph-name="qafinitialarabic" unicode="&#x642;" horiz-adv-x="610" arabic-form="initial" 
d="M497 529v115h-124v-115h124zM308 529v115h-124v-115h124zM578 228c0 71.333 -21.666 126.667 -64.999 166c-42.667 40 -99.334 60 -170.001 60c-69.333 0 -124.333 -20.5 -165 -61.5s-61 -96.167 -61 -165.5c0 -34 5.33301 -65 16 -93h-143v-134h359
c70 0 125.333 21 166 63c42 42 63 97 63 165zM439.001 224.001c0 -30.667 -7.33301 -56.333 -22 -77c-16.667 -22.667 -39.667 -34 -69 -34c-30.667 0 -54.667 12 -72 36c-14.667 20.667 -22 47.334 -22 80.001c0 29.333 6.66699 54.666 20 75.999c16 24.667 38 37 66 37h10
c59.333 0 89 -39.333 89 -118z" />
    <glyph glyph-name="qafmedialarabic" unicode="&#x642;" horiz-adv-x="626" arabic-form="medial" 
d="M473 627v115h-124v-115h124zM284 627v115h-124v-115h124zM647 0v134h-81c-42 0 -69.333 2.66699 -82 8c43.333 49.333 65 104 65 164c0 25.333 -4 50.666 -12 75.999c-15.333 48.667 -42.666 87.167 -81.999 115.5s-85.666 42.5 -138.999 42.5
c-52.667 0 -98.667 -14.167 -138 -42.5s-67 -66.833 -83 -115.5c-8 -25.333 -12 -50.666 -12 -75.999c0 -60 21.667 -114.667 65 -164c-12 -5.33301 -39.333 -8 -82 -8h-91v-134h91c97.333 -0 180.666 12.333 249.999 37c69.333 -24.667 152.666 -37 249.999 -37h81z
M365 201c-18 -12.667 -34.333 -22.668 -49 -30.001c-16 8 -32 18 -48 30c-38.667 28 -58 66.333 -58 115c0 30.667 8.66699 57.334 26 80.001c21.333 23.333 48 35 80 35c32.667 0 58.667 -11 78 -33s29 -49.333 29 -82c0 -48.667 -19.333 -87 -58 -115z" />
    <glyph glyph-name="kaffinalarabic" unicode="&#x643;" horiz-adv-x="1034" arabic-form="final" 
d="M590 355l0.000976562 75.999h-113c-14.667 4.66699 -22 18.334 -22 41.001c0 28.667 11.333 43 34 43c15.333 0 26.666 -10 33.999 -30l65 31c-20 45.333 -52.667 68 -98 68c-31.333 0 -57.5 -11 -78.5 -33s-31.5 -49.667 -31.5 -83c0 -11.333 2 -24 6 -38h-57v-75h261z
M1044 -0.000976562v134h-164c11.333 32 17 65.667 17 101v409h-140v-407c0 -40.667 -8.5 -68 -25.5 -82s-52.833 -21 -107.5 -21h-258c-72 0 -122.667 11 -152 33s-44 60 -44 114v172h-138v-172c0 -187.333 110.333 -281 331 -281h681z" />
    <glyph glyph-name="kafinitialarabic" unicode="&#x643;" horiz-adv-x="716" arabic-form="initial" 
d="M684 0l-0.000976562 51.999c0 118.667 -24.667 212.834 -74 282.501s-121.333 109.5 -216 119.5h-77l126 190h-166l-200 -319h252c52.667 0 97.834 -18 135.501 -54s60.167 -81.667 67.5 -137h-576v-134h728z" />
    <glyph glyph-name="kafmedialarabic" unicode="&#x643;" horiz-adv-x="799" arabic-form="medial" 
d="M815 0v134.002h-128c-14.667 133.333 -66.667 226.666 -156 279.999c-36 21.333 -79.333 34.666 -130 39.999h-75l125 190h-167l-198 -319h252c54 0 100 -19 138 -57c36 -36 57.333 -80.667 64 -134h-550v-134h825z" />
    <glyph glyph-name="lamfinalarabic" unicode="&#x644;" horiz-adv-x="800" arabic-form="final" 
d="M814 0l-0.000976562 134h-150v510h-140v-457c0 -70 -15.5 -124.667 -46.5 -164s-73.833 -59 -128.5 -59c-55.333 0 -98.666 20.5 -129.999 61.5s-47 94.833 -47 161.5v86h-140v-99c0 -96 30.667 -176.667 92 -242s136 -98 224 -98c58.667 0 112 14.667 160 44
s85.667 70 113 122h193z" />
    <glyph glyph-name="laminitialarabic" unicode="&#x644;" horiz-adv-x="314" arabic-form="initial" 
d="M282 193v451h-140v-412c0 -65.333 -23.667 -98 -71 -98h-103v-134h132c59.333 -0 105.333 20.333 138 61c29.333 35.333 44 79.333 44 132z" />
    <glyph glyph-name="lammedialarabic" unicode="&#x644;" horiz-adv-x="430" arabic-form="medial" 
d="M440 0v134h-164c11.333 32 17 65.667 17 101v409h-141v-414c0 -64 -23.667 -96 -71 -96h-95v-134h454z" />
    <glyph glyph-name="meemfinalarabic" unicode="&#x645;" horiz-adv-x="965" arabic-form="final" 
d="M970 0v134h-7c-53.333 1.33301 -92.666 12.833 -117.999 34.5s-44.333 61.167 -57 118.5c-11.333 50.667 -36.833 91 -76.5 121s-88.167 45 -145.5 45h-285c-74.667 0 -134.834 -24.167 -180.501 -72.5s-68.5 -112.833 -68.5 -193.5v-353h138v331
c0 101.333 39 152 117 152h64c-10.667 -27.333 -16 -58.333 -16 -93c0 -68.667 20.5 -123.667 61.5 -165s95.833 -62 164.5 -62c82 0 144.667 26.667 188 80c54 -51.333 125.667 -77 215 -77h6zM657 228c0 -78.667 -29.668 -118 -89.001 -118h-10
c-25.333 0 -46 10.667 -62 32s-24 48.666 -24 81.999c0 34 8.33301 61.667 25 83s39.334 32 68.001 32c28 0 50.333 -10.167 67 -30.5s25 -47.166 25 -80.499z" />
    <glyph glyph-name="meeminitialarabic" unicode="&#x645;" horiz-adv-x="611" arabic-form="initial" 
d="M579 142c0 68.667 -21.166 123.501 -63.499 164.501s-99.5 61.5 -171.5 61.5c-71.333 0 -126.833 -21 -166.5 -63s-59.5 -99 -59.5 -171h-139v-134h180c41.333 -57.333 104.666 -86 189.999 -86c69.333 0 125 21.167 167 63.5s63 97.166 63 164.499zM440.001 137.001
c0 -32.667 -8.33301 -59 -25 -79s-38.667 -30 -66 -30c-29.333 0 -52.333 10.5 -69 31.5s-25 48.833 -25 83.5c0 33.333 8 60.5 24 81.5s36.667 31.5 62 31.5h10c59.333 0 89 -39.667 89 -119z" />
    <glyph glyph-name="meemmedialarabic" unicode="&#x645;" horiz-adv-x="653" arabic-form="medial" 
d="M673 0v134.002h-117c0 73.333 -20.667 130.666 -62 171.999s-98.666 62 -171.999 62c-72 0 -127.833 -20.833 -167.5 -62.5s-59.5 -98.834 -59.5 -171.501h-112v-134h153c42 -57.333 105.333 -86 190 -86c83.333 0 145.666 28.667 186.999 86h160zM417 137.002
c0 -33.333 -7.99902 -59.833 -23.999 -79.5s-38.333 -29.5 -67 -29.5s-51.334 10.667 -68.001 32s-25 49 -25 83c0 32.667 7.83301 59.667 23.5 81s36.167 32 61.5 32h10c59.333 0 89 -39.667 89 -119z" />
    <glyph glyph-name="noonfinalarabic" unicode="&#x646;" horiz-adv-x="800" arabic-form="final" 
d="M417 529v115h-124v-115h124zM826 0v134h-162v319h-140v-266c0 -65.333 -15.833 -118.833 -47.5 -160.5s-74.167 -62.5 -127.5 -62.5c-54 0 -96.833 20.5 -128.5 61.5s-47.5 94.833 -47.5 161.5v266h-141v-279c0 -96 30.667 -176.667 92 -242s136 -98 224 -98
c58.667 0 112 14.667 160 44s85.667 70 113 122h205z" />
    <glyph glyph-name="nooninitialarabic" unicode="&#x646;" horiz-adv-x="322" arabic-form="initial" 
d="M281 529v115h-125v-115h125zM290 193l-0.000976562 260h-140v-221c0 -65.333 -23.667 -98 -71 -98h-89v-134h119c58.667 -0 104.334 20.333 137.001 61c29.333 35.333 44 79.333 44 132z" />
    <glyph glyph-name="noonmedialarabic" unicode="&#x646;" horiz-adv-x="430" arabic-form="medial" 
d="M282 529v115h-125v-115h125zM440 0v134h-164c11.333 32 17 65.667 17 101v218h-141v-223c0 -64 -23.667 -96 -71 -96h-92v-134h451z" />
    <glyph glyph-name="hehfinalarabic" unicode="&#x647;" horiz-adv-x="662" arabic-form="final" 
d="M680 0v134h-72c-68 0 -102 34 -102 102v315c-178 0 -267 -0.333008 -267 -1c-65.333 0 -116.166 -22 -152.499 -66s-54.5 -103.667 -54.5 -179c0 -70 18 -127.833 54 -173.5s83.667 -68.5 143 -68.5c69.333 0 116.666 20 141.999 60c32 -82 88 -123 168 -123h141z
M362 316c0 -41.333 -8.50098 -74.499 -25.501 -99.499s-40.167 -37.5 -69.5 -37.5c-27.333 0 -50.166 12.5 -68.499 37.5s-27.5 55.167 -27.5 90.5c0 39.333 9.5 72.666 28.5 99.999s42.5 41 70.5 41h92v-132z" />
    <glyph glyph-name="hehinitialarabic" unicode="&#x647;" horiz-adv-x="773" arabic-form="initial" 
d="M716 0c16.667 66 25.001 128 25.001 186c0 99.333 -24.333 183.333 -73 252c-30.667 44 -72.5 81.333 -125.5 112s-106.167 48.667 -159.5 54l-12 -135c74 -8 131.167 -37.833 171.5 -89.5s61.166 -116.5 62.499 -194.5l-2 -51h-97c12 26.667 18 55.667 18 87
c0 61.333 -19.5 109.833 -58.5 145.5s-89.833 53.5 -152.5 53.5s-113.667 -18.167 -153 -54.5s-59 -84.5 -59 -144.5c0 -32 6.33301 -61 19 -87h-149v-134h745zM391.001 222c0 -25.333 -7.33203 -46.5 -21.999 -63.5s-33.334 -25.5 -56.001 -25.5s-41.167 8.5 -55.5 25.5
s-21.5 38.167 -21.5 63.5s6.83301 45.833 20.5 61.5s32.5 23.5 56.5 23.5s43 -7.83301 57 -23.5s21 -36.167 21 -61.5z" />
    <glyph glyph-name="hehmedialarabic" unicode="&#x647;" horiz-adv-x="827" arabic-form="medial" 
d="M839 0l0.000976562 134h-90l2 52c-2 102.667 -26.333 186.667 -73 252c-30.667 44 -72.5 81.333 -125.5 112s-105.833 48.667 -158.5 54l-13 -135c74 -8 131.167 -37.833 171.5 -89.5s61.166 -116.5 62.499 -194.5l-2 -51h-97c12.667 26 19 55 19 87
c0 60.667 -19.667 109 -59 145s-90.333 54 -153 54s-113.667 -18.167 -153 -54.5s-59 -84.5 -59 -144.5c0 -32 6.33301 -61 19 -87h-144v-134h853zM401.001 222c0 -25.333 -7.33203 -46.5 -21.999 -63.5s-33.334 -25.5 -56.001 -25.5c-22 0 -40.333 8.66699 -55 26
s-22 38.333 -22 63c0 25.333 6.83301 45.833 20.5 61.5s32.5 23.5 56.5 23.5s43 -7.83301 57 -23.5s21 -36.167 21 -61.5z" />
    <glyph glyph-name="wawfinalarabic" unicode="&#x648;" horiz-adv-x="623" arabic-form="final" 
d="M641 0l-0.00195312 134.001h-130v91c0 66.667 -21 121.5 -63 164.5s-95 64.5 -159 64.5c-66.667 0 -121.167 -20.833 -163.5 -62.5s-63.5 -96.167 -63.5 -163.5c0 -66.667 21.333 -121.334 64 -164.001s97 -64 163 -64c46.667 0 75.334 2 86.001 6
c-11.333 -39.333 -43.666 -59 -96.999 -59h-12v-112h15c136 0 212 55 228 165h132zM370.998 134.001h-80.999c-25.333 0 -46 9.5 -62 28.5s-24 42.833 -24 71.5c0 27.333 7.16699 49.833 21.5 67.5s34.166 26.5 59.499 26.5s46 -8.83301 62 -26.5s24 -41.167 24 -70.5v-97z
" />
    <glyph glyph-name="alefmaksurafinalarabic" unicode="&#x649;" horiz-adv-x="909" arabic-form="final" 
d="M913 0l-0.000976562 133.999h-22c-30.667 0 -55.167 4.5 -73.5 13.5s-33.5 24.833 -45.5 47.5c-48 92 -122.667 138 -224 138c-40.667 0 -61 -0.333008 -61 -1v-122c8 2 16 3 24 3c24.667 0 46.334 -8.33301 65.001 -25s28 -37.667 28 -63
c0 -45.333 -21.333 -83.5 -64 -114.5s-91.667 -46.5 -147 -46.5c-70 0 -124.333 20.333 -163 61s-58 95 -58 163v107h-140v-120c0 -96.667 34.5 -177.667 103.5 -243s153.833 -98 254.5 -98c82.667 0 155.5 20.833 218.5 62.5s102.167 95.834 117.5 162.501
c39.333 -39.333 99.333 -59 180 -59h7z" />
    <glyph glyph-name="yehfinalarabic" unicode="&#x64a;" horiz-adv-x="909" arabic-form="final" 
d="M913 0l-0.000976562 133.999h-22c-30.667 0 -55.167 4.5 -73.5 13.5s-33.5 24.833 -45.5 47.5c-48 92 -122.667 138 -224 138c-40.667 0 -61 -0.333008 -61 -1v-122c8 2 16 3 24 3c24.667 0 46.334 -8.33301 65.001 -25s28 -37.667 28 -63
c0 -45.333 -21.333 -83.5 -64 -114.5s-91.667 -46.5 -147 -46.5c-70 0 -124.333 20.333 -163 61s-58 95 -58 163v107h-140v-120c0 -96.667 34.5 -177.667 103.5 -243s153.833 -98 254.5 -98c82.667 0 155.5 20.833 218.5 62.5s102.167 95.834 117.5 162.501
c39.333 -39.333 99.333 -59 180 -59h7zM560.999 -374.001v115h-124v-115h124zM372.999 -374.001v115h-125v-115h125z" />
    <glyph glyph-name="yehinitialarabic" unicode="&#x64a;" horiz-adv-x="322" arabic-form="initial" 
d="M290 193l-0.000976562 260h-140v-221c0 -65.333 -23.667 -98 -71 -98h-89v-134h119c58.667 -0 104.334 20.333 137.001 61c29.333 35.333 44 79.333 44 132zM280.999 -166v116h-125v-116h125zM91.999 -166v116h-124v-116h124z" />
    <glyph glyph-name="yehmedialarabic" unicode="&#x64a;" horiz-adv-x="433" arabic-form="medial" 
d="M443 0v134h-163c10.667 30 16 63.667 16 101v218h-141v-223c0 -64 -23.333 -96 -70 -96h-92v-134h450zM282 -166v116h-124v-116h124zM94 -166v116h-124v-116h124z" />
    <glyph glyph-name=".notdef" horiz-adv-x="500" 
d="M63 0h375v750h-375v-750zM125 63v625h250v-625h-250z" />
    <glyph glyph-name="space" unicode=" " horiz-adv-x="205" 
 />
    <glyph glyph-name="exclam" unicode="!" horiz-adv-x="235" 
d="M172 452v192h-140v-192l42 -251h54zM172 0v134h-140v-134h140z" />
    <glyph glyph-name="quotedbl" unicode="&#x22;" horiz-adv-x="316" 
d="M133 686h-112l27 -272h60zM288 686h-112l27 -272h60z" />
    <glyph glyph-name="dollar" unicode="$" horiz-adv-x="609" 
d="M577 164c0 50.667 -16.5 90.167 -49.5 118.5s-91.833 51.166 -176.5 68.499v122c38.667 -8 80 -23 124 -45l80 93c-69.333 42.667 -137.333 67.334 -204 74.001v105h-73v-104c-67.333 -4.66699 -120.666 -24.5 -159.999 -59.5s-59 -81.5 -59 -139.5
c0 -50 15.5 -88 46.5 -114s88.833 -46.667 173.5 -62v-141c-48.667 4 -103 22.333 -163 55l-84 -95c71.333 -46 153.666 -74 246.999 -84v-110h72v110c72.667 7.33301 128.5 28.833 167.5 64.5s58.5 83.5 58.5 143.5zM279 364c-49.333 9.33301 -74 26 -74 50
c0 35.333 24.667 55.333 74 60v-110zM431 152c0 -41.333 -26.667 -64.668 -80 -70.001v125c53.333 -7.33301 80 -25.666 80 -54.999z" />
    <glyph glyph-name="quotesingle" unicode="'" horiz-adv-x="165" 
d="M133 686h-112l27 -272h60z" />
    <glyph glyph-name="parenleft" unicode="(" horiz-adv-x="351" 
d="M320 -120c-100 89.333 -150 217 -150 383c0 78 12.333 147 37 207c22.667 56.667 60 114.334 112 173.001l-52 55c-154.667 -118.667 -232 -267.334 -232 -446.001c0 -174.667 78.667 -319.667 236 -435z" />
    <glyph glyph-name="parenright" unicode=")" horiz-adv-x="351" 
d="M317 262c0 175.333 -78.333 320.334 -235 435.001l-50 -63c100 -88.667 150 -216.334 150 -383.001c0 -80.667 -12.333 -150 -37 -208c-21.333 -53.333 -59 -111 -113 -173l54 -54c76 62 132.667 126.667 170 194c40.667 74.667 61 158.667 61 252z" />
    <glyph glyph-name="at" unicode="*" horiz-adv-x="358" 
d="M326 127v64l-102 -8l58 82l-58 36l-45 -96l-43 96l-61 -37l57 -83l-100 11v-66l102 6l-58 -83l61 -37l42 96l45 -91l64 31l-63 85z" />
    <glyph glyph-name="plus" unicode="+" horiz-adv-x="550" 
d="M522 238v119h-178v183h-139v-183h-176v-119h176v-186h139v186h178z" />
    <glyph glyph-name="hyphen" unicode="-" horiz-adv-x="551" 
d="M517 157v119h-493v-119h493z" />
    <glyph glyph-name="period" unicode="." horiz-adv-x="190" 
d="M148 1v133h-123v-133h123z" />
    <glyph glyph-name="slash" unicode="/" horiz-adv-x="472" 
d="M439 645h-130l-277 -645h130z" />
    <glyph glyph-name="zero" unicode="0" horiz-adv-x="370" 
d="M271 94v168l-172 75v-170z" />
    <glyph glyph-name="one" unicode="1" horiz-adv-x="293" 
d="M216 0v645l-139 -98v-547h139z" />
    <glyph glyph-name="two" unicode="2" horiz-adv-x="582" 
d="M505 514l0.000976562 128.999c-3.33301 0.666992 -45 1 -125 1c-108 0 -183.833 -32.167 -227.5 -96.5s-65.5 -163.166 -65.5 -296.499v-251h140v344c0 48 13.333 88.333 40 121s67 49 121 49c14.667 0 31.667 -0.166992 51 -0.5s31.666 -0.5 36.999 -0.5z" />
    <glyph glyph-name="three" unicode="3" horiz-adv-x="736" 
d="M77 0h140.001v357h175c80 0 144.5 16.833 193.5 50.5s73.5 78.834 73.5 135.501v101h-136v-75c0 -32.667 -11 -59.834 -33 -81.501s-50.667 -32.5 -86 -32.5c20.667 10.667 31 40 31 88v101h-119v-75c0 -36 -6.33301 -62.333 -19 -79s-39.334 -25 -80.001 -25v180h-140
v-645z" />
    <glyph glyph-name="four" unicode="4" horiz-adv-x="584" 
d="M507 0l0.000976562 114.999h-202c-26 0 -46.167 8.5 -60.5 25.5s-21.5 39.167 -21.5 66.5c0 52 29.667 78 89 78h30c11.333 -0.666992 20.666 -1 27.999 -1v105h-27c-10.667 -0.666992 -20 -1 -28 -1c-51.333 0 -77 24.333 -77 73c0 20.667 6 37.834 18 51.501
s27.667 20.5 47 20.5h181v111h-189c-87.333 0 -147.333 -28 -180 -84c-15.333 -26.667 -23 -54.667 -23 -84c0 -48 18.333 -86 55 -114c23.333 -12 39.333 -19.667 48 -23c-38 -7.33301 -67.167 -23.333 -87.5 -48s-30.5 -56 -30.5 -94c0 -31.333 7 -60.333 21 -87
c38 -73.333 109 -110 213 -110h196z" />
    <glyph glyph-name="five" unicode="5" horiz-adv-x="637" 
d="M560 285c0 46 -18 94.667 -54 146c-29.333 40 -65.333 76.667 -108 110c-36 28.667 -63.667 45 -83 49c-18 -4 -45.333 -21 -82 -51c-43.333 -36 -78 -73.333 -104 -112c-34.667 -50.667 -52 -98.334 -52 -143.001c0 -73.333 21.667 -131.666 65 -174.999
c44.667 -43.333 103.667 -65 177 -65c72.667 0 131 22 175 66c44 44.667 66 103 66 175zM425 280c0 -37.333 -8.99902 -67.333 -26.999 -90c-18.667 -26 -46.334 -39 -83.001 -39s-64.334 13 -83.001 39c-16 22.667 -24 52.667 -24 90c0 32 13 68.667 39 110
c25.333 38 48 61.667 68 71c24.667 -12.667 48.334 -37 71.001 -73c26 -40 39 -76 39 -108z" />
    <glyph glyph-name="six" unicode="6" horiz-adv-x="571" 
d="M87 514l-0.000976562 128.999c3.33301 0.666992 45 1 125 1c108 0 183.833 -32.167 227.5 -96.5s65.5 -163.166 65.5 -296.499v-251h-140v344c0 48 -13.333 88.333 -40 121s-67 49 -121 49c-14.667 0 -31.667 -0.166992 -51 -0.5s-31.666 -0.5 -36.999 -0.5z" />
    <glyph glyph-name="seven" unicode="7" horiz-adv-x="633" 
d="M556 644h-146l-90 -458l-105 458h-138l160 -644h163z" />
    <glyph glyph-name="eight" unicode="8" horiz-adv-x="630" 
d="M553 0l-153 644h-164l-159 -644h138l104 458l88 -458h146z" />
    <glyph glyph-name="nine" unicode="9" horiz-adv-x="629" 
d="M552 0l-0.000976562 412.999c0 66 -23 121 -69 165c-45.333 44 -102.666 66 -171.999 66c-70 0 -126.333 -21.333 -169 -64c-43.333 -43.333 -65 -97.666 -65 -162.999c0 -70 18.667 -126.667 56 -170c40.667 -48 100 -72 178 -72c51.333 0 85.333 10.333 102 31v-206
h139zM410.999 406.999c0 -28.667 -7.33301 -52.332 -22 -70.999c-17.333 -21.333 -40 -32 -68 -32c-31.333 0 -55.333 11 -72 33c-16.667 19.333 -25 43.666 -25 72.999c0 30.667 8.16699 55.5 24.5 74.5s38.833 28.5 67.5 28.5c29.333 0 53 -11 71 -33
c16 -18.667 24 -43 24 -73z" />
    <glyph glyph-name="colon" unicode=":" horiz-adv-x="190" 
d="M148 224v133h-123v-133h123zM149 0v134h-123v-134h123z" />
    <glyph glyph-name="less" unicode="&#x3c;" horiz-adv-x="481" 
d="M432 0l-234 233l234 234h-159l-234 -234l234 -233h159z" />
    <glyph glyph-name="equal" unicode="=" horiz-adv-x="567" 
d="M530 291v118h-493v-118h493zM530 98v118h-493v-118h493z" />
    <glyph glyph-name="greater" unicode="&#x3e;" horiz-adv-x="481" 
d="M38 0l234 233l-234 234h159l234 -234l-234 -233h-159z" />
    <glyph glyph-name="bracketleft" unicode="[" horiz-adv-x="270" 
d="M236 -165v77h-82v689h82v76h-204v-842h204z" />
    <glyph glyph-name="backslash" unicode="\" horiz-adv-x="467" 
d="M434 0l-277 645h-129l277 -645h129z" />
    <glyph glyph-name="bracketright" unicode="]" horiz-adv-x="270" 
d="M236 -165v842h-204v-76h83v-689h-83v-77h204z" />
    <glyph glyph-name="underscore" unicode="_" horiz-adv-x="382" 
d="M365 -120v104h-349v-104h349z" />
    <glyph glyph-name="braceleft" unicode="{" horiz-adv-x="422" 
d="M375 -124c0 8 -0.333008 13.335 -1 16.002c-52 0.666992 -89.167 6.5 -111.5 17.5s-33.5 31.5 -33.5 61.5l1 16v202c0 35.333 -24 68.666 -72 99.999c48 36.667 72 69.667 72 99v202c0 39.333 9.66699 65.666 29 78.999s57.333 20 114 20v9
c0 12.667 -0.666992 22.334 -2 29.001c-167.333 0 -251 -45.667 -251 -137v-202c0 -20.667 -7.66699 -39.834 -23 -57.501s-35 -31.5 -59 -41.5h-2c56 -36.667 84 -70 84 -100v-202c0 -44 13.833 -76.333 41.5 -97s72.5 -31 134.5 -31h78c0.666992 3.33301 1 9 1 17z" />
    <glyph glyph-name="bar" unicode="|" horiz-adv-x="175" 
d="M34 -141h103v866h-103v-866z" />
    <glyph glyph-name="braceright" unicode="}" horiz-adv-x="422" 
d="M35 -124c0 8 0.333008 13.335 1 16.002c52 0.666992 89.167 6.5 111.5 17.5s33.5 31.5 33.5 61.5l-1 16v202c0 35.333 24 68.666 72 99.999c-48 37.333 -72 70.333 -72 99v202c0 39.333 -9.66699 65.666 -29 78.999s-57.333 20 -114 20v9
c0 12.667 0.666992 22.334 2 29.001c167.333 0 251 -45.667 251 -137v-202c0 -20.667 7.66699 -39.834 23 -57.501s35 -31.5 59 -41.5h2c-56 -36.667 -84 -70 -84 -100v-202c0 -44 -13.833 -76.333 -41.5 -97s-72.5 -31 -134.5 -31h-78c-0.666992 3.33301 -1 9 -1 17z" />
    <glyph glyph-name="nbspace" unicode="&#xa0;" horiz-adv-x="623" 
 />
    <glyph glyph-name="guillemotleft" unicode="&#xab;" horiz-adv-x="349" 
d="M313 33c-24 27.333 -40 49.667 -48 67c-10.667 21.333 -16 48.666 -16 81.999c0 62.667 21.333 112.334 64 149.001l-38 38c-66.667 -48 -100 -109 -100 -183c0 -72 32.667 -134.667 98 -188zM167 33.001c-24 27.333 -40 49.667 -48 67
c-10.667 21.333 -16 48.666 -16 81.999c0 62.667 21.333 112.334 64 149.001l-38 38c-66.667 -48 -100 -109 -100 -183c0 -72 32.667 -134.667 98 -188z" />
    <glyph glyph-name="guillemotright" unicode="&#xbb;" horiz-adv-x="349" 
d="M316 185c0 74 -33.333 134.999 -100 182.999l-38 -38c42 -37.333 63 -87 63 -149c0 -32.667 -5 -60 -15 -82c-8.66699 -17.333 -24.667 -39.666 -48 -66.999l40 -35c65.333 53.333 98 116 98 188zM170 184.999c0 74 -33.333 134.999 -100 182.999l-38 -38
c42.667 -36.667 64 -86.334 64 -149.001c0 -33.333 -5.33301 -60.666 -16 -81.999c-8 -17.333 -24 -39.666 -48 -66.999l40 -35c65.333 53.333 98 116 98 188z" />
    <glyph glyph-name="multiply" unicode="&#xd7;" horiz-adv-x="550" 
d="M489 415l-83 84l-133 -133l-132 133l-84 -84l133 -133l-133 -132l84 -84l132 133l133 -133l83 84l-132 132z" />
    <glyph glyph-name="divide" unicode="&#xf7;" horiz-adv-x="551" 
d="M332 410v116h-124v-116h124zM515 224v119h-493v-119h493zM332 40v115h-124v-115h124z" />
    <glyph glyph-name="commaarabic" unicode="&#x60c;" horiz-adv-x="191" 
d="M150 213v53c-83.333 -19.333 -125 -67 -125 -143v-123h124v132h-47c2 23.333 5 40 9 50c7.33301 14 20.333 24.333 39 31z" />
    <glyph glyph-name="semicolonarabic" unicode="&#x61b;" horiz-adv-x="191" 
d="M150 436v53c-64 -14 -103.333 -47.333 -118 -100c-4.66699 -14.667 -7 -28.667 -7 -42v-123h124v132h-47c2 23.333 5 40 9 50c7.33301 13.333 20.333 23.333 39 30zM150 1v133h-123v-133h123z" />
    <glyph glyph-name="questionarabic" unicode="&#x61f;" horiz-adv-x="543" 
d="M517 489c-21.333 60 -51.502 103 -90.502 129s-92.5 39 -160.5 39c-68.667 0 -123.667 -15.167 -165 -45.5s-62 -71.833 -62 -124.5c0 -44.667 15.667 -82.667 47 -114c6.66699 -6.66699 40.667 -32.334 102 -77.001c28.667 -20.667 46 -34.334 52 -41.001
s10.333 -17.667 13 -33h115v7c0 17.333 -0.5 30 -1.5 38s-4.5 17.833 -10.5 29.5s-15.667 22.834 -29 33.501s-32 23.334 -56 38.001c-37.333 22.667 -62.166 41 -74.499 55s-18.5 30.333 -18.5 49c0 54.667 33.333 82 100 82c32 0 57.833 -10.167 77.5 -30.5
s29.834 -46.5 30.501 -78.5zM378.998 0v134h-139v-134h139z" />
    <glyph glyph-name="tatweelarabic" unicode="&#x640;" horiz-adv-x="198" 
d="M205 0v134h-214v-134h214z" />
    <glyph glyph-name="maddaabove" unicode="&#x653;" 
d="M235 730l-18.999 54c-18.667 -22 -35.667 -33 -51 -33c-8.66699 0 -25.334 6 -50.001 18c-24.667 12.667 -44 19 -58 19c-23.333 0 -45.333 -14 -66 -42l20 -55c16 22 31.333 33 46 33c14 0 32.333 -6 55 -18s40.667 -18 54 -18c22.667 0 45.667 14 69 42z" />
    <glyph glyph-name="hamzaabove" unicode="&#x654;" 
d="M198 700l-0.00195312 52.001h-78c-9.33301 3.33301 -14 12.666 -14 27.999c0 20 7.66699 30 23 30c10.667 0 18 -7 22 -21l45 21c-13.333 31.333 -35.666 47 -66.999 47c-21.333 0 -39.166 -7.66699 -53.499 -23s-21.5 -34.333 -21.5 -57c0 -9.33301 1.33301 -18 4 -26
h-39v-51h179z" />
    <glyph glyph-name="hamzabelow" unicode="&#x655;" 
d="M191 -199l-0.000976562 52h-79c-8.66699 2.66699 -13 12 -13 28c0 20 7.66699 30 23 30c10 0 17.667 -6.66699 23 -20l45 21c-13.333 31.333 -35.666 47 -66.999 47c-22 0 -40.333 -7.66699 -55 -23s-22 -34.333 -22 -57c0 -6.66699 1.66699 -15.667 5 -27h-40v-51h180z
" />
    <glyph glyph-name="zeroarabic" unicode="&#x660;" horiz-adv-x="370" 
d="M271 94v168l-172 75v-170z" />
    <glyph glyph-name="onearabic" unicode="&#x661;" horiz-adv-x="293" 
d="M216 0v645l-139 -98v-547h139z" />
    <glyph glyph-name="twoarabic" unicode="&#x662;" horiz-adv-x="582" 
d="M505 514l0.000976562 128.999c-3.33301 0.666992 -45 1 -125 1c-108 0 -183.833 -32.167 -227.5 -96.5s-65.5 -163.166 -65.5 -296.499v-251h140v344c0 48 13.333 88.333 40 121s67 49 121 49c14.667 0 31.667 -0.166992 51 -0.5s31.666 -0.5 36.999 -0.5z" />
    <glyph glyph-name="threearabic" unicode="&#x663;" horiz-adv-x="736" 
d="M659 543l0.000976562 101.001h-136v-75c0 -32.667 -11 -59.834 -33 -81.501s-50.667 -32.5 -86 -32.5c20.667 10.667 31 40 31 88v101h-119v-75c0 -36 -6.33301 -62.333 -19 -79s-39.334 -25 -80.001 -25v180h-140v-645h140v357h175c76 0 138.333 15 187 45
c53.333 34 80 81 80 141z" />
    <glyph glyph-name="fourarabic" unicode="&#x664;" horiz-adv-x="584" 
d="M507 0l-0.000976562 114.999h-202c-26 0 -46.167 8.5 -60.5 25.5s-21.5 39.167 -21.5 66.5c0 52 29.667 78 89 78h30c5.33301 0 10.166 -0.166992 14.499 -0.5s7.5 -0.5 9.5 -0.5h4v105h-27c-5.33301 0 -10.666 -0.166992 -15.999 -0.5s-8.33301 -0.5 -9 -0.5
c-53.333 0 -80 24.333 -80 73c0 20.667 6 37.834 18 51.501s27.667 20.5 47 20.5h181v111h-189c-61.333 0 -110.5 -15 -147.5 -45s-55.5 -71 -55.5 -123c0 -66 34.333 -111.667 103 -137c-38 -7.33301 -67.167 -23.333 -87.5 -48s-30.5 -56 -30.5 -94
c0 -60.667 21.833 -108.667 65.5 -144s99.834 -53 168.501 -53h196z" />
    <glyph glyph-name="fivearabic" unicode="&#x665;" horiz-adv-x="637" 
d="M560 285c0 48.667 -18 97.332 -54 145.999c-24 33.333 -56.833 67.166 -98.5 101.499s-72.5 53.5 -92.5 57.5c-18 -4 -45.333 -21 -82 -51c-48 -40 -86 -82.667 -114 -128s-42 -87.666 -42 -126.999c0 -73.333 22 -131.666 66 -174.999s102.667 -65 176 -65
c72.667 0 131 22.333 175 67s66 102.667 66 174zM425 279.998c0 -38.667 -9.83301 -69.833 -29.5 -93.5s-46.5 -35.5 -80.5 -35.5s-60.333 11.5 -79 34.5s-28 54.5 -28 94.5c0 28.667 12.167 63.334 36.5 104.001s47.833 66.334 70.5 77.001
c24.667 -12.667 49.167 -38.834 73.5 -78.501s36.5 -73.834 36.5 -102.501z" />
    <glyph glyph-name="sixarabic" unicode="&#x666;" horiz-adv-x="571" 
d="M87 514l-0.000976562 128.999c3.33301 0.666992 45 1 125 1c108 0 183.833 -32.167 227.5 -96.5s65.5 -163.166 65.5 -296.499v-251h-140v344c0 48 -13.333 88.333 -40 121s-67 49 -121 49c-14.667 0 -31.667 -0.166992 -51 -0.5s-31.666 -0.5 -36.999 -0.5z" />
    <glyph glyph-name="sevenarabic" unicode="&#x667;" horiz-adv-x="633" 
d="M556 644h-146l-90 -458l-105 458h-138l160 -644h163z" />
    <glyph glyph-name="eightarabic" unicode="&#x668;" horiz-adv-x="630" 
d="M553 0l-153 644h-164l-159 -644h138l104 458l88 -458h146z" />
    <glyph glyph-name="ninearabic" unicode="&#x669;" horiz-adv-x="629" 
d="M552 0l-0.000976562 412.999c0 66 -23 121 -69 165c-45.333 44 -102.666 66 -171.999 66c-70 0 -126.333 -21.333 -169 -64c-43.333 -43.333 -65 -97.666 -65 -162.999c0 -70 18.667 -126.667 56 -170c40.667 -48 100 -72 178 -72c51.333 0 85.333 10.333 102 31v-206
h139zM410.999 406.999c0 -28.667 -7.33301 -52.332 -22 -70.999c-17.333 -21.333 -40 -32 -68 -32c-31.333 0 -55.333 11 -72 33c-16.667 19.333 -25 43.666 -25 72.999c0 30.667 8.16699 55.5 24.5 74.5s38.833 28.5 67.5 28.5c29.333 0 53 -11 71 -33
c16 -18.667 24 -43 24 -73z" />
    <glyph glyph-name="percentarabic" unicode="&#x66a;" horiz-adv-x="472" 
d="M202 501v115h-124v-115h124zM440 645h-130l-278 -645h130zM397 31v115h-124v-115h124z" />
    <glyph glyph-name="decimalseparatorarabic" unicode="&#x66b;" horiz-adv-x="191" 
d="M24 -63v-53c83.333 19.333 125 67 125 143v123h-124v-132h47c-2 -23.333 -5 -40 -9 -50c-7.33301 -14 -20.333 -24.333 -39 -31z" />
    <glyph glyph-name="thousandsseparatorarabic" unicode="&#x66c;" horiz-adv-x="191" 
d="M24 -63v-53c83.333 19.333 125 67 125 143v123h-124v-132h47c-2 -23.333 -5 -40 -9 -50c-7.33301 -14 -20.333 -24.333 -39 -31z" />
    <glyph glyph-name="asteriskarabic" unicode="&#x66d;" horiz-adv-x="500" 
d="M447 245l-9 20l-138 -20l-38 143h-20l-39 -143l-138 21l-9 -21l117 -93l-52 -139l17 -13l114 94l113 -94l17 15l-51 138z" />
    <glyph glyph-name="superscriptalef" unicode="&#x670;" 
d="M23 714h54v204h-54v-204z" />
    <glyph glyph-name="extendedarabicindicdigitzero" unicode="&#x6f0;" horiz-adv-x="370" 
d="M271 94v168l-172 75v-170z" />
    <glyph glyph-name="extendedarabicindicdigitone" unicode="&#x6f1;" horiz-adv-x="293" 
d="M216 0v645l-139 -98v-547h139z" />
    <glyph glyph-name="extendedarabicindicdigittwo" unicode="&#x6f2;" horiz-adv-x="582" 
d="M505 514l0.000976562 128.999c-3.33301 0.666992 -45 1 -125 1c-108 0 -183.833 -32.167 -227.5 -96.5s-65.5 -163.166 -65.5 -296.499v-251h140v344c0 48 13.333 88.333 40 121s67 49 121 49c14.667 0 31.667 -0.166992 51 -0.5s31.666 -0.5 36.999 -0.5z" />
    <glyph glyph-name="extendedarabicindicdigitthree" unicode="&#x6f3;" horiz-adv-x="736" 
d="M659 543l0.000976562 101.001h-136v-75c0 -32.667 -11 -59.834 -33 -81.501s-50.667 -32.5 -86 -32.5c20.667 10.667 31 40 31 88v101h-119v-75c0 -36 -6.33301 -62.333 -19 -79s-39.334 -25 -80.001 -25v180h-140v-645h140v357h175c76 0 138.333 15 187 45
c53.333 34 80 81 80 141z" />
    <glyph glyph-name="extendedarabicindicdigitfour" unicode="&#x6f4;" horiz-adv-x="584" 
d="M507 0l-0.000976562 114.999h-202c-26 0 -46.167 8.5 -60.5 25.5s-21.5 39.167 -21.5 66.5c0 52 29.667 78 89 78h30c5.33301 0 10.166 -0.166992 14.499 -0.5s7.5 -0.5 9.5 -0.5h4v105h-27c-5.33301 0 -10.666 -0.166992 -15.999 -0.5s-8.33301 -0.5 -9 -0.5
c-53.333 0 -80 24.333 -80 73c0 20.667 6 37.834 18 51.501s27.667 20.5 47 20.5h181v111h-189c-61.333 0 -110.5 -15 -147.5 -45s-55.5 -71 -55.5 -123c0 -66 34.333 -111.667 103 -137c-38 -7.33301 -67.167 -23.333 -87.5 -48s-30.5 -56 -30.5 -94
c0 -60.667 21.833 -108.667 65.5 -144s99.834 -53 168.501 -53h196z" />
    <glyph glyph-name="extendedarabicindicdigitfive" unicode="&#x6f5;" horiz-adv-x="637" 
d="M560 285c0 48.667 -18 97.332 -54 145.999c-24 33.333 -56.833 67.166 -98.5 101.499s-72.5 53.5 -92.5 57.5c-18 -4 -45.333 -21 -82 -51c-48 -40 -86 -82.667 -114 -128s-42 -87.666 -42 -126.999c0 -73.333 22 -131.666 66 -174.999s102.667 -65 176 -65
c72.667 0 131 22.333 175 67s66 102.667 66 174zM425 279.998c0 -38.667 -9.83301 -69.833 -29.5 -93.5s-46.5 -35.5 -80.5 -35.5s-60.333 11.5 -79 34.5s-28 54.5 -28 94.5c0 28.667 12.167 63.334 36.5 104.001s47.833 66.334 70.5 77.001
c24.667 -12.667 49.167 -38.834 73.5 -78.501s36.5 -73.834 36.5 -102.501z" />
    <glyph glyph-name="extendedarabicindicdigitsix" unicode="&#x6f6;" horiz-adv-x="571" 
d="M87 514l-0.000976562 128.999c3.33301 0.666992 45 1 125 1c108 0 183.833 -32.167 227.5 -96.5s65.5 -163.166 65.5 -296.499v-251h-140v344c0 48 -13.333 88.333 -40 121s-67 49 -121 49c-14.667 0 -31.667 -0.166992 -51 -0.5s-31.666 -0.5 -36.999 -0.5z" />
    <glyph glyph-name="extendedarabicindicdigitseven" unicode="&#x6f7;" horiz-adv-x="633" 
d="M556 644h-146l-90 -458l-105 458h-138l160 -644h163z" />
    <glyph glyph-name="extendedarabicindicdigiteight" unicode="&#x6f8;" horiz-adv-x="630" 
d="M553 0l-153 644h-164l-159 -644h138l104 458l88 -458h146z" />
    </font>
</defs>
</svg>
